<?xml version="1.0" standalone="no"?>
<!DOCTYPE svg PUBLIC "-//W3C//DTD SVG 1.1//EN" "http://www.w3.org/Graphics/SVG/1.1/DTD/svg11.dtd" >
<svg>
<metadata>
Created by FontForge 20090622 at Thu Nov 17 18:08:12 2016
 By deploy user
Typeface: Copyright &#194;&#169;1995 International Typeface Corporation. Data: Copyright &#194;&#169; 1995 Microsoft Corportation. All rights reserved.
</metadata>
<defs>
<font id="ErasITC-Medium" horiz-adv-x="1170" >
  <font-face 
    font-family="Eras Medium ITC"
    font-weight="400"
    font-stretch="normal"
    units-per-em="2048"
    panose-1="2 11 6 2 3 5 4 2 8 4"
    ascent="1638"
    descent="-410"
    x-height="1013"
    cap-height="1365"
    bbox="-347 -512 2321 1825"
    underline-thickness="120"
    underline-position="-94"
    unicode-range="U+0020-U+F002"
  />
<missing-glyph horiz-adv-x="2048" 
d="M256 0v1536h1536v-1536h-1536zM384 128h1280v1280h-1280v-1280z" />
    <glyph glyph-name=".notdef" horiz-adv-x="2048" 
d="M256 0v1536h1536v-1536h-1536zM384 128h1280v1280h-1280v-1280z" />
    <glyph glyph-name="glyph1" horiz-adv-x="0" 
 />
    <glyph glyph-name="glyph2" horiz-adv-x="512" 
 />
    <glyph glyph-name="space" unicode=" " horiz-adv-x="512" 
 />
    <glyph glyph-name="exclam" unicode="!" horiz-adv-x="562" 
d="M187 298l21 716l6 255l1 96q65 -1 96 -1l92 1q-11 -132 -18 -278l-41 -789q-44 2 -72 2q-39 0 -85 -2zM154 0l4 58q2 23 3 60l3 63q71 -2 105 -2q28 0 100 2q-3 -39 -10 -181q-66 2 -100 2q-43 0 -105 -2z" />
    <glyph glyph-name="quotedbl" unicode="&#x22;" horiz-adv-x="594" 
d="M142 1026q3 88 3 156l-1 183l72 -1l69 1q-19 -170 -30 -339q-32 2 -53 2q-27 0 -60 -2zM370 1026q3 88 3 156l-1 183l71 -1l70 1q-19 -154 -30 -339q-32 2 -53 2q-27 0 -60 -2z" />
    <glyph glyph-name="numbersign" unicode="#" 
d="M314 487l-230 -3q12 45 23 117l228 -3l32 179l-230 -3q9 35 23 117l228 -3l82 477q25 -1 66 -1q42 0 65 1l-87 -478h233l83 478q25 -1 66 -1t65 1q-9 -46 -87 -477l122 1q88 2 105 2q-13 -57 -22 -117l-226 3l-32 -179l228 3q-13 -50 -23 -117l-226 3l-84 -487
q-25 2 -66 2q-42 0 -65 -2l89 488h-233l-85 -488q-25 2 -65 2q-42 0 -66 -2zM493 778l-32 -181h116h118l32 181h-234z" />
    <glyph glyph-name="dollar" unicode="$" 
d="M183 231q102 -53 174 -72.5t139 -19.5q65 0 120.5 23.5t89.5 74t34 110.5q0 23 -5 43.5t-14.5 39.5t-26 40.5t-28 32l-77.5 70.5l-121 110q-78 70 -113 104.5t-65 80.5t-44.5 92.5t-14.5 94.5q0 57 20 108.5t59 93.5t88 66t147 42q2 30 2 82t-1 94l84 -1q27 0 83 1
q-8 -92 -9 -175q65 -6 107.5 -14t99.5 -25q3 -68 12 -161q-80 34 -140.5 47t-114.5 13q-61 0 -110.5 -20.5t-80.5 -66.5t-31 -101q0 -30 8.5 -60.5t33 -65t51 -61t123 -113.5t145 -134.5t77.5 -90.5t43 -87t14 -92q0 -46 -14 -90.5t-40.5 -83.5t-61.5 -68t-74 -46.5
t-110 -36.5q-2 -58 -2 -95q0 -31 2 -91q-53 2 -82 2q-28 0 -86 -2q7 88 8 173q-91 8 -151 22.5t-139 46.5q-2 100 -8 166z" />
    <glyph glyph-name="percent" unicode="%" horiz-adv-x="1640" 
d="M383 1380q94 0 157 -48t95 -138t32 -211q0 -140 -40 -259.5t-111 -171t-168 -51.5q-93 0 -158.5 47t-97 136.5t-31.5 199.5q0 145 40.5 268.5t115 175.5t166.5 52zM380 1285q-59 0 -106 -46.5t-71 -140.5t-24 -217q0 -95 20 -156.5t59.5 -95.5t91.5 -34q96 0 146.5 110
t50.5 287q0 103 -21 164.5t-58.5 95t-87.5 33.5zM357 0l521 864l192 322l103 179q30 -1 61 -1t60 1l-249 -409l-468 -786l-96 -170q-29 2 -59 2q-29 0 -65 -2zM1305 864q138 0 210 -104.5t72 -286.5q0 -95 -19 -188.5t-59 -164.5t-102 -102.5t-139 -31.5q-94 0 -157.5 45
t-96 132.5t-32.5 205.5q0 145 40.5 268t115 175t167.5 52zM1301 769q-61 0 -107.5 -48t-69.5 -140.5t-23 -214.5q0 -99 20 -159.5t59.5 -94t90.5 -33.5q96 0 146 111t50 287q0 100 -20 162t-57.5 96t-88.5 34z" />
    <glyph glyph-name="ampersand" unicode="&#x26;" horiz-adv-x="1412" 
d="M1087 606q50 -2 78 -2q29 0 76 2q-1 -104 -26.5 -201t-74.5 -181l119.5 -115l115.5 -109q-71 2 -107 2q-45 0 -102 -2l-145 136q-35 -30 -60.5 -49t-63.5 -40t-84 -36t-105 -24t-121 -9q-141 0 -252 46t-169.5 134t-58.5 195q0 53 15.5 105.5t55 105t102 99.5t172.5 109
q-72 104 -98 173.5t-26 131.5q0 60 27.5 120t81.5 105.5t124.5 65t147.5 19.5q52 0 109.5 -9.5t136.5 -34.5q0 -100 2 -144q-61 35 -109 48.5t-97 13.5q-72 0 -130 -26.5t-89 -77.5t-31 -107q0 -37 11.5 -76t44.5 -95q47 -81 136 -188q75 -90 166 -181q35 -36 173 -169
q17 36 23.5 55.5t14 56t11.5 73t6 80.5zM930 238q-125 119 -216 215.5t-186 210.5q-84 -51 -130 -86t-75.5 -75t-39.5 -75.5t-10 -71.5q0 -73 42 -132t119 -90.5t175 -31.5q57 0 110.5 11.5t93 30.5t63 39.5t54.5 54.5z" />
    <glyph glyph-name="quotesingle" unicode="'" horiz-adv-x="367" 
d="M142 1026q3 88 3 156l-1 183l72 -1l69 1q-19 -170 -30 -339q-32 2 -53 2q-27 0 -60 -2z" />
    <glyph glyph-name="parenleft" unicode="(" horiz-adv-x="656" 
d="M268 -451q-43 173 -70 356t-27 385q0 320 67.5 616.5t124.5 458.5q40 -1 69 -1q31 0 71 1l-40 -143q-27 -96 -49 -196t-37.5 -195t-25.5 -191t-15 -188t-5 -183q0 -110 4.5 -202t14 -178t20.5 -146t40 -194q-34 2 -69 2q-39 0 -73 -2z" />
    <glyph glyph-name="parenright" unicode=")" horiz-adv-x="649" 
d="M195 1365q37 -1 70 -1q36 0 70 1q49 -233 70.5 -414t21.5 -355q0 -294 -58 -572.5t-131 -474.5q-43 2 -72 2q-30 0 -69 -2q48 152 66 218q29 111 53 250t38.5 304.5t14.5 320.5q0 100 -6 202t-17.5 197.5t-18.5 139.5z" />
    <glyph glyph-name="asterisk" unicode="*" horiz-adv-x="1034" 
d="M247 799l195 219l-267 79q25 50 49 113l259 -109l-1 286q36 -2 62 -2q28 0 61 2l-31 -286l270 104q15 -57 36 -112l-278 -77l174 -217q-61 -42 -102 -76l-154 241l-182 -241q-43 39 -91 76z" />
    <glyph glyph-name="plus" unicode="+" 
d="M112 643q7 57 8 120q268 -4 413 -4l12 422q19 -2 64 -2q47 0 64 2q-3 -51 -6 -123l-15 -299l169 1q47 0 252 3q-6 -51 -8 -120q-260 5 -418 5l-12 -423q-21 2 -64 2q-44 0 -65 -2q3 49 9 170l12 253l-157 -1q-57 0 -258 -4z" />
    <glyph glyph-name="comma" unicode="," horiz-adv-x="461" 
d="M13 -219q76 208 126 369q67 -1 109 -1q39 0 106 1l-64.5 -107.5t-89.5 -150.5l-66 -111q-36 1 -60 1q-26 0 -61 -1z" />
    <glyph glyph-name="hyphen" unicode="-" horiz-adv-x="510" 
d="M-3 461q8 74 8 133q139 -5 249 -5q107 0 249 5q-7 -70 -8 -133q-125 5 -251 5q-120 0 -247 -5z" />
    <glyph glyph-name="period" unicode="." horiz-adv-x="461" 
d="M113 0l8 185l102 -2q23 0 92 2q-4 -43 -5 -76l-5 -109q-65 2 -92 2q-25 0 -100 -2z" />
    <glyph glyph-name="slash" unicode="/" horiz-adv-x="850" 
d="M-186 -451l222 446l574 1181l88 189l65 -1l64 1l-782 -1611l-95 -205q-42 2 -65 2q-22 0 -71 -2z" />
    <glyph glyph-name="zero" unicode="0" 
d="M624 1387q74 0 139.5 -18.5t129 -69t106 -135.5t62 -187.5t19.5 -217.5q0 -153 -32 -304t-93.5 -259t-166.5 -163t-228 -55q-144 0 -248 71.5t-157.5 210.5t-53.5 325q0 156 30.5 309.5t95 268t170.5 169.5t227 55zM618 1259q-45 0 -88.5 -17t-83.5 -53t-67 -84
t-51.5 -124.5t-37 -183.5t-12.5 -218q0 -104 14 -185q12 -69 44 -133q23 -49 61 -85t80 -53t91 -17t94 18t89.5 65t81 138.5t53 206.5t16.5 234q0 98 -11.5 172t-37.5 139t-67 106.5t-81.5 57.5t-86.5 16z" />
    <glyph glyph-name="one" unicode="1" 
d="M514 0q13 156 21 354l18 447q11 251 14 395q-53 -32 -81 -51l-68 -46q8 94 8 164q127 74 164 102q33 -1 84 -1q53 0 91 1l-25 -427l-26 -592l-4 -149q-1 -57 -1 -115l1 -82q-50 2 -93 2q-49 0 -103 -2z" />
    <glyph glyph-name="two" unicode="2" 
d="M115 0q3 34 5 138q166 161 304 309t252 289q96 118 135 187q24 42 32.5 73.5t8.5 62.5q0 69 -41 113t-106 66t-151 22q-143 0 -366 -57q14 71 24 145q201 39 397 39q90 0 173.5 -17.5t147 -59t94 -97.5t30.5 -122q0 -39 -7.5 -75t-21.5 -68q-27 -61 -71 -128t-144.5 -189
t-214 -244t-256.5 -262q70 -2 238 -2q94 0 212.5 2t213.5 11q-8 -87 -10 -136q-178 2 -427 2l-183 -1z" />
    <glyph glyph-name="three" unicode="3" 
d="M115 30q-5 86 -14 154q113 -43 202 -59t167 -16q102 0 185.5 33.5t136.5 101t53 158.5q0 73 -39 130t-117.5 87t-212.5 30q-62 0 -139 -7q7 85 8 138q52 -9 94 -9q106 0 196 26.5t139 94.5t49 146q0 52 -22 98t-64 75t-99.5 40t-116.5 11q-77 0 -147 -9t-169 -34
q12 46 25 139q116 17 185 23.5t132 6.5q105 0 197.5 -18.5t155.5 -61t92.5 -107.5t29.5 -140q0 -55 -17 -110t-44.5 -95t-60.5 -66t-70.5 -43t-113.5 -40q80 -9 120 -22t78 -40t65.5 -65.5t41 -88t13.5 -102.5q0 -94 -43 -177t-122 -136t-179 -75.5t-209 -22.5
q-79 0 -162 11t-204 41z" />
    <glyph glyph-name="four" unicode="4" 
d="M649 0q16 184 26 471l-574 -5q3 27 5 75.5t2 82.5l188 250l195 266q82 111 157 225q66 -1 127 -1q59 0 115 1q-24 -376 -36 -765l31 -1q148 0 164 1t32 4q-3 -51 -3 -115v-22q-80 4 -230 4l-8 -295q-2 -74 -2 -97q0 -26 2 -79q-55 2 -93 2q-35 0 -98 -2zM694 595
q3 63 3 74l20 570l-468 -644h445z" />
    <glyph glyph-name="five" unicode="5" 
d="M161 17q-5 83 -14 146q102 -29 168.5 -39.5t127.5 -10.5q83 0 159.5 21.5t132.5 67.5t86 109.5t30 132.5q0 77 -40 135t-117.5 86.5t-199.5 28.5q-129 0 -301 -30l63 701q250 -1 402 -1h147l230 1q-6 -60 -7 -138l-123 7l-75 1l-133 3q-98 1 -180 1l-89 -1l-42 -452
q106 16 189 16q94 0 171.5 -15t130.5 -41t94 -71t62.5 -104.5t21.5 -122.5q0 -104 -48 -197.5t-132 -154t-194 -89.5t-225 -29q-38 0 -98 5.5t-98.5 12t-98.5 21.5z" />
    <glyph glyph-name="six" unicode="6" 
d="M515 790q59 11 91 14.5t63 3.5q108 0 194.5 -35t142.5 -125.5t56 -210.5q0 -87 -30 -170.5t-96 -154t-161.5 -102.5t-205.5 -32q-96 0 -186 27.5t-154.5 85.5t-94 138t-29.5 163q0 70 15.5 156.5t71.5 214.5t146 272.5t230 329.5q71 -1 112 -1q50 0 116 1
q-118 -143 -166 -206q-82 -107 -154.5 -228t-117 -225t-60 -171.5t-15.5 -134.5q0 -90 33 -152.5t98 -102t154 -39.5q91 0 164 40.5t109 114.5t36 161q0 75 -28 135.5t-91.5 92.5t-152.5 32q-70 0 -163 -23q59 101 73 131z" />
    <glyph glyph-name="seven" unicode="7" 
d="M226 0l324 658l278 578q-112 1 -241 1q-215 0 -426 -11q6 72 8 139q198 -1 449 -1l409 1l-8 -151l-21 -40l-117 -244l-313 -660l-118 -270q-73 1 -107 1z" />
    <glyph glyph-name="eight" unicode="8" 
d="M385 696q-63 25 -95 46.5t-63.5 60.5t-47.5 89t-16 107q0 91 38 168.5t108.5 128t152.5 71t171 20.5q111 0 206.5 -36.5t152.5 -117t57 -192.5q0 -43 -8 -85t-29 -82t-51.5 -72t-61.5 -52.5t-97 -49.5q70 -18 103.5 -33.5t65 -42t53 -61.5t33 -79t11.5 -93
q0 -91 -36.5 -170.5t-103 -134t-164.5 -81.5t-203 -27q-146 0 -255.5 47t-162.5 129.5t-53 189.5q0 48 11.5 95.5t37.5 91t61 74t72 49t113 42.5zM618 1265q-130 0 -208.5 -78t-78.5 -199q0 -74 32.5 -127.5t93.5 -81t134 -27.5q82 0 148.5 34.5t104.5 97t38 144.5
q0 80 -39 135t-97.5 78.5t-127.5 23.5zM591 634q-107 0 -176.5 -33.5t-108 -95.5t-38.5 -140q0 -73 36 -134.5t111 -95.5t160 -34q86 0 161.5 36t115.5 105t40 151q0 112 -74.5 176.5t-226.5 64.5z" />
    <glyph glyph-name="nine" unicode="9" 
d="M391 0q234 304 366.5 543.5t132.5 416.5q0 87 -34.5 157.5t-99 106.5t-149.5 36q-87 0 -160 -38.5t-112.5 -106.5t-39.5 -150q0 -81 29.5 -140.5t96 -91t156.5 -31.5q38 0 74.5 5t110.5 25q-35 -59 -76 -136q-89 -19 -161 -19q-124 0 -223 45.5t-144.5 129t-45.5 190.5
q0 132 65.5 235t180.5 157t257 54q102 0 193.5 -30.5t151 -90.5t86 -139.5t26.5 -154.5q0 -60 -13 -133t-43.5 -155.5t-81.5 -184t-124.5 -218l-185.5 -282.5q-56 1 -111 1q-37 0 -122 -1z" />
    <glyph glyph-name="colon" unicode=":" horiz-adv-x="461" 
d="M155 829l8 184l101 -1l92 1q-5 -62 -6 -95.5t-4 -88.5l-91 1q-50 -1 -100 -1zM113 0l8 185l102 -2q23 0 92 2q-4 -43 -5 -76l-5 -109q-65 2 -92 2q-25 0 -100 -2z" />
    <glyph glyph-name="semicolon" unicode=";" horiz-adv-x="461" 
d="M154 829q4 59 5 94.5t4 89.5l101 -1l92 1q-4 -62 -5.5 -95.5t-4.5 -88.5l-91 1q-50 -1 -101 -1zM13 -219q76 208 126 369q67 -1 109 -1q39 0 106 1l-64.5 -107.5t-89.5 -150.5l-66 -111q-36 1 -60 1q-26 0 -61 -1z" />
    <glyph glyph-name="less" unicode="&#x3c;" horiz-adv-x="1028" 
d="M957 1173v-157l-717 -329l717 -330v-156l-887 418v136z" />
    <glyph glyph-name="equal" unicode="=" 
d="M136 898q210 -5 476 -5q263 0 477 5q-6 -49 -8 -121q-272 5 -476 5q-205 0 -477 -5q6 55 8 121zM117 629q272 -4 476 -4t477 4q-6 -51 -8 -120q-271 5 -476 5q-204 0 -477 -5q7 57 8 120z" />
    <glyph glyph-name="greater" unicode="&#x3e;" horiz-adv-x="1028" 
d="M71 200v158l717 329l-716 330l-1 156l887 -418v-137z" />
    <glyph glyph-name="question" unicode="?" horiz-adv-x="959" 
d="M324 275l7 139q5 81 11 114t16.5 56.5t34.5 55.5q34 45 121 142t112.5 131.5t44.5 73t19 81.5q0 58 -35.5 104.5t-106 67t-155.5 20.5q-67 0 -139 -10.5t-192 -41.5q20 92 27 149q191 30 351 30q131 0 234.5 -33t155.5 -105t52 -153q0 -36 -9 -76.5t-38.5 -93.5
t-76.5 -109t-103.5 -115t-80.5 -87t-37.5 -50.5t-20.5 -43.5t-12.5 -54.5t-9.5 -84.5l-9 -107q-39 2 -79 2q-43 0 -82 -2zM290 0l12 177l102 -1l101 1q-5 -64 -6 -104.5t-4 -72.5q-60 2 -100 2q-41 0 -105 -2z" />
    <glyph glyph-name="at" unicode="@" horiz-adv-x="1669" 
d="M1198 996l-14 -75q-1 -3 -16 -104l-37 -237q-5 -34 -7 -52q-1 -10 -1.5 -17.5t-0.5 -12.5q0 -35 18.5 -52.5t46.5 -17.5q60 0 129.5 60.5t111.5 160.5t42 211q0 96 -34 181t-110.5 143.5t-178.5 84t-212 25.5q-145 0 -274.5 -42.5t-231 -140.5t-158.5 -239.5t-57 -295.5
q0 -112 36 -211t111 -166.5t182 -97.5t227 -30q66 0 134 8.5t130 30.5t135 70q13 -41 30 -81q-91 -62 -199.5 -91.5t-240.5 -29.5q-144 0 -274 40t-215.5 119t-125 189t-39.5 242q0 173 68.5 338.5t182.5 273t267.5 157.5t320.5 50q131 0 250.5 -32.5t206.5 -102.5
t132.5 -173.5t45.5 -219.5q0 -137 -60 -257.5t-166 -197t-213 -76.5q-68 0 -110 33t-42 88q-28 -31 -47 -48.5t-51.5 -35t-72.5 -27.5t-80 -10q-70 0 -128.5 33t-87 91t-28.5 134q0 109 57.5 219t161.5 164.5t254 54.5q41 0 85 -4t147 -24zM1049 907q-56 14 -104 14
q-93 0 -165 -39t-113.5 -119.5t-41.5 -164.5q0 -45 16 -84t52.5 -62t82.5 -23q39 0 75 13.5t66 40.5t51 62t32.5 71t24 116t24.5 175z" />
    <glyph glyph-name="A" unicode="A" horiz-adv-x="1425" 
d="M-47 0l182 344l464 907l54 114l116 -1q54 0 117 1l173 -490l320 -875l-95 2q-27 0 -107 -2q-27 96 -89.5 278t-105.5 295h-547l-145 -299l-128 -274l-102 2q-25 0 -107 -2zM494 705h450l-186 529z" />
    <glyph glyph-name="B" unicode="B" horiz-adv-x="1233" 
d="M135 0q17 204 23.5 331t18 488.5t11.5 451.5l-1 94q135 -2 208 -2q59 0 158.5 2t152.5 2q110 0 167.5 -11t102.5 -35t76 -60.5t50 -90.5t19 -119q0 -51 -12.5 -98.5t-38.5 -89t-60 -71.5t-65 -46.5t-82 -35.5q51 -13 81.5 -25t61 -32t57 -49.5t43 -63t25.5 -75.5t9 -88
q0 -64 -19 -122t-55 -103.5t-85 -76t-97 -46t-126.5 -22.5t-209.5 -7l-255 1zM350 767h181q122 0 166 5.5t95.5 26t85 60t49 86t15.5 93.5q0 50 -16.5 88t-49.5 65t-77.5 39t-135.5 12h-295zM326 126h260q110 0 163 12t104 42.5t80 91t29 128.5q0 56 -20.5 101t-60 78
t-92.5 48t-155 15h-290z" />
    <glyph glyph-name="C" unicode="C" horiz-adv-x="1288" 
d="M1193 174q-14 -72 -25 -156q-197 -40 -361 -40q-146 0 -282 44.5t-236.5 137.5t-146.5 219t-46 270q0 154 51 297t154.5 242.5t250 149t306.5 49.5q172 0 343 -36q1 -51 11 -156q-111 34 -189 45.5t-148 11.5q-119 0 -228 -36.5t-193 -116.5t-128.5 -196.5t-44.5 -242.5
q0 -117 35.5 -222t109 -177.5t174.5 -111t227 -38.5q159 0 366 63z" />
    <glyph glyph-name="D" unicode="D" horiz-adv-x="1510" 
d="M134 0l28 412l30 809q1 49 1 144q126 -2 215 -2q56 0 173 2t166 2q167 0 280 -26q86 -19 157.5 -67t127.5 -125.5t83 -170.5q32 -112 32 -234q0 -167 -59 -320.5t-175.5 -256t-261 -135t-322.5 -32.5l-279 2q-27 0 -196 -2zM326 134q122 -3 227 -3q88 0 179.5 8.5
t164 31.5t142.5 82.5t114.5 135t66.5 169t22 189.5q0 108 -28 200t-95.5 166t-160 98.5t-244.5 24.5q-187 0 -342 -3z" />
    <glyph glyph-name="E" unicode="E" horiz-adv-x="1158" 
d="M134 0l25 376l28 703l3 153q1 58 1 133q226 -1 463 -1l319 1h102q-7 -69 -9 -139l-89 5q-33 2 -113.5 3t-159.5 1q-236 0 -329 -3l-18 -469q154 -3 276 -3q133 0 349 4q-7 -70 -9 -138l-344 3q-101 0 -281 -4l-18 -494l104 -1q283 0 375.5 2t216.5 9q-7 -74 -9 -141
q-241 2 -407 2z" />
    <glyph glyph-name="F" unicode="F" horiz-adv-x="1091" 
d="M135 0l13 183q4 62 7 135l22 595l6 240q2 76 2 133v79q237 -1 448 -1l247 1h148q-8 -92 -8 -139q-127 8 -358 8l-294 -2l-15 -472l192 -4q272 0 395 4q-6 -74 -6 -137q-185 4 -312 4q-125 0 -277 -4q-11 -368 -11 -623l-97 2q-6 0 -102 -2z" />
    <glyph glyph-name="G" unicode="G" horiz-adv-x="1527" 
d="M909 765q173 -1 266 -1q99 0 223 1q-22 -299 -32 -722q-303 -65 -518 -65q-159 0 -304.5 41t-245.5 125t-150.5 216t-50.5 279q0 167 63.5 314.5t178.5 247.5t259 143t319 43q192 0 428 -51q2 -75 10 -162q-140 46 -242 63.5t-188 17.5q-135 0 -257 -40.5t-209 -124
t-132 -206.5t-45 -254q0 -117 36.5 -219.5t110.5 -167.5t180.5 -99.5t231.5 -34.5q68 0 162 12.5t190 42.5l20 473h-94q-94 0 -216 -5q6 72 6 133z" />
    <glyph glyph-name="H" unicode="H" horiz-adv-x="1509" 
d="M135 0l33 603l16 460l3 158q1 34 1 144l102 -1l95 1l-29 -599h812l18 475q1 25 1 124l102 -1l95 1q-26 -396 -37.5 -711.5t-15.5 -653.5l-98 2q-15 0 -103 -2q26 312 32 632h-812l-14 -410l-4 -222l-101 2q-14 0 -96 -2z" />
    <glyph glyph-name="I" unicode="I" horiz-adv-x="510" 
d="M135 0l15 230l21 479l14 472q1 41 1 82l-1 102l103 -1l97 1q-18 -250 -27 -522q-16 -436 -23 -843l-94 2q-18 0 -106 -2z" />
    <glyph glyph-name="J" unicode="J" horiz-adv-x="858" 
d="M-31 13q-4 81 -13 155q105 -32 161 -42t111 -10q52 0 100 13q42 12 73 31q26 16 43 36q22 27 38 65q17 38 23 88q9 72 19 289l11 355l7 372l96 -1l100 1q-21 -312 -31 -549l-15 -379q-5 -141 -23 -215.5t-69.5 -127.5t-137 -84t-194.5 -31q-131 0 -299 34z" />
    <glyph glyph-name="K" unicode="K" horiz-adv-x="1195" 
d="M371 724l252 284l213 249l86 108l114 -1l109 1l-487 -539l-84 -97l55 -71q18 -23 251 -302l300 -356q-87 2 -115 2q-45 0 -123 -2l-99 134zM136 0l25 393l27 773q2 65 2 131l-1 68l101 -1l97 1l-20 -365l-30 -815l-3 -185l-97 2q-14 0 -101 -2z" />
    <glyph glyph-name="L" unicode="L" horiz-adv-x="1008" 
d="M130 0q23 258 39.5 630.5t20.5 734.5q69 -1 105 -1l93 1l-32 -634l-24 -598l190 -1q212 0 298.5 1.5t167.5 6.5q-6 -63 -10 -140q-227 2 -401 2z" />
    <glyph glyph-name="M" unicode="M" horiz-adv-x="1748" 
d="M108 0l21 185l62 745l30 435q76 -1 132 -1q52 0 126 1l23 -87q10 -35 25 -82l52 -157l123 -355l153 -476l199 476l227 520q12 28 23.5 59.5l36.5 101.5q65 -1 135 -1q56 0 128 1l-13 -477l-5 -313q-1 -44 -1 -88l1 -229v-129q0 -22 2 -129q-66 2 -88 2q-31 0 -91 -2
l6 127l15 720q3 121 3 269l-1 82l-439 -1053l-58 -145q-65 2 -91 2q-31 0 -96 -2l-119 377l-123 371l-122 358q-8 24 -27 86l-12 -117l-60 -860q-2 -43 -3.5 -86t-3.5 -129l-84 2q-20 0 -86 -2z" />
    <glyph glyph-name="N" unicode="N" horiz-adv-x="1546" 
d="M134 0l20 278l34 812l4 158q1 75 1 117q75 -1 125 -1q41 0 115 1l109 -176l661 -997l42 1173l89 -1l88 1l-22 -350l-27 -617l-12 -398q-59 2 -116 2q-52 0 -121 -2l-92 147l-677 1015q-4 -56 -8 -176l-28 -707l-6 -279q-65 2 -87 2q-16 0 -92 -2z" />
    <glyph glyph-name="O" unicode="O" horiz-adv-x="1649" 
d="M863 1387q148 0 281 -43t234.5 -142t144.5 -222t43 -267q0 -154 -48 -296t-148 -241t-246 -148.5t-307 -49.5q-153 0 -293.5 45t-239.5 138.5t-143 220t-44 268.5q0 156 53 299.5t156.5 242.5t250 147t306.5 48zM852 1254q-120 0 -227 -38.5t-186.5 -123.5t-118 -200
t-38.5 -240q0 -116 38 -222.5t112 -177.5t178 -105.5t217 -34.5q116 0 221.5 37t182 117.5t113.5 194.5t37 239q0 118 -33.5 225.5t-107 183.5t-174.5 110.5t-214 34.5z" />
    <glyph glyph-name="P" unicode="P" horiz-adv-x="1113" 
d="M135 0l17 227l32 782l4 168q1 40 1 79v109q125 -2 203 -2q47 0 144 2t145 2q127 0 188 -18.5t108 -62t74 -107.5t27 -141q0 -126 -64 -226.5t-174.5 -150t-246.5 -49.5q-72 0 -160 16q-15 69 -34 125q78 -15 152 -15q72 0 137.5 16.5t112.5 55t73 96.5t26 123
q0 51 -19 94.5t-52.5 69t-76 34.5t-123.5 9h-84l-105 -2l-78 1q-12 -219 -17 -398l-14 -411q-7 -234 -7 -313v-113l-93 2q-17 0 -96 -2z" />
    <glyph glyph-name="Q" unicode="Q" horiz-adv-x="1658" 
d="M1565 187q-11 -44 -28 -154q-196 -28 -376.5 -41.5t-297.5 -13.5q-164 0 -309 40t-253 136.5t-156 222.5t-48 272q0 156 52.5 299t155 239.5t244.5 148t312 51.5q144 0 278 -43t230 -134.5t146 -221.5t50 -273q0 -72 -11 -140t-31.5 -126t-52.5 -111t-67.5 -90.5
t-69.5 -65t-84 -60.5q70 6 114.5 13.5t87.5 19t114 32.5zM854 1254q-115 0 -220 -37t-186 -115.5t-125.5 -196.5t-44.5 -244q0 -114 30 -211.5t105 -178t180.5 -119.5t222.5 -39q121 0 230 40t186 120.5t113.5 193t36.5 236.5q0 177 -68 305t-190.5 187t-269.5 59z" />
    <glyph glyph-name="R" unicode="R" horiz-adv-x="1159" 
d="M133 0l20 269l23 497l10 418q2 127 2 181q120 -2 199 -2q68 0 150.5 2t135.5 2q93 0 169.5 -13t137 -59.5t89 -108t28.5 -139.5q0 -75 -22.5 -139t-66 -116t-103.5 -85q-46 -25 -115 -41q-46 -10 -126 -19l176 -281l182 -279l55 -87q-78 2 -104 2q-28 0 -107 -2l-72 137
l-44 79l-48 84l-226 369q-14 22 -46 77q77 -14 136 -14q100 0 181.5 33t126 102.5t44.5 154.5q0 46 -14 85.5t-44.5 66.5t-60 39t-76 18t-98.5 6l-142 -2q-92 0 -117 1q-31 -672 -38 -1236l-98 2q-22 0 -97 -2z" />
    <glyph glyph-name="S" unicode="S" horiz-adv-x="974" 
d="M79 36q-4 95 -13 165q106 -50 190.5 -70.5t162.5 -20.5q75 0 139.5 25.5t97 72t32.5 106.5q0 35 -11 65.5t-35.5 62t-85 85l-171.5 147.5l-74 63q-42 36 -76 71.5t-57 68t-35.5 59t-19.5 59t-7 66.5q0 86 47 161t141.5 120t249.5 45q111 0 273 -30q2 -64 14 -157
q-153 54 -278 54q-86 0 -144 -28.5t-88 -73t-30 -91.5q0 -28 8 -54.5t24 -50.5q23 -35 57 -70.5t94 -86.5l114.5 -94t145 -127t72.5 -83.5t42 -83t15 -96.5q0 -80 -34.5 -147.5t-99 -110.5t-143.5 -61t-165 -18q-69 0 -142.5 10.5t-209.5 47.5z" />
    <glyph glyph-name="T" unicode="T" horiz-adv-x="1068" 
d="M413 0l20 306l27 634l9 293q-245 -1 -429 -9q6 80 7 141q254 -1 548 -1l320 1h170q-7 -88 -7 -140q-155 9 -343 9h-82l-21 -443l-21 -624v-167l-96 2q-13 0 -102 -2z" />
    <glyph glyph-name="U" unicode="U" horiz-adv-x="1487" 
d="M184 1365l99 -1l97 1l-45 -763l-3 -93v-19q0 -139 41 -215.5t130.5 -118.5t226.5 -42q92 0 170 24q65 21 110.5 56t75.5 86q28 49 40 111q14 78 25 272l18 322q8 178 11 380l103 -1l93 1l-29 -471l-18 -390q-9 -136 -29 -211q-15 -53 -44 -100q-26 -42 -64 -75
q-45 -40 -109 -71q-68 -32 -144 -48q-109 -21 -226 -21q-114 0 -213 23q-86 20 -158 61t-115 93q-36 42 -57 106q-24 72 -24 159q0 93 7.5 213t19 362t11.5 370z" />
    <glyph glyph-name="V" unicode="V" horiz-adv-x="1375" 
d="M522 0l-54 174l-426 1191q69 -1 105 -1l94 1l31 -108l23 -70l355 -1040l510 1036l33.5 71.5l48.5 110.5q72 -1 104 -1l99 1q-94 -170 -240 -458l-259 -508q-113 -220 -195 -399q-71 2 -112 2t-117 -2z" />
    <glyph glyph-name="W" unicode="W" horiz-adv-x="1983" 
d="M507 0l-157 503l-285 862q55 -1 97 -1q45 0 97 1l177 -596l137 -442l52 -159q153 316 291 644q-88 284 -184 553q55 -1 98 -1q45 0 97 1q27 -103 45.5 -167t52.5 -166q58 124 137 333q55 -1 99 -1q47 0 99 1q-134 -272 -259 -555q92 -320 203 -642l266 594l193 446
l65 157q56 -1 98 -1q44 0 97 1l-319 -681l-228 -500l-81 -184q-55 2 -104 2q-53 0 -104 -2q-88 301 -192 591q-147 -294 -277 -591q-54 2 -106 2q-54 0 -105 -2z" />
    <glyph glyph-name="X" unicode="X" horiz-adv-x="1228" 
d="M-45 0l228 286l325 424l-268 405l-170 250q67 -1 117 -1q42 0 106 1q81 -141 185 -295.5t153 -237.5l319 423l29.5 42.5l44.5 67.5q58 -1 106 -1l105 1l-229 -295l-282 -367l184 -284l280 -419q-76 2 -108 2q-47 0 -114 -2l-52 87l-51 83l-264 408l-239 -317
q-114 -150 -190 -261q-72 2 -106 2q-36 0 -109 -2z" />
    <glyph glyph-name="Y" unicode="Y" horiz-adv-x="1089" 
d="M402 0q26 296 40 598l-439 767l107 -1q32 0 101 1q47 -100 146 -275.5l187 -344.5l349 544l45 76q66 -1 106 -1l100 1l-399 -590l-125 -189l-20 -456l-2 -130q-71 2 -98 2t-98 -2z" />
    <glyph glyph-name="Z" unicode="Z" horiz-adv-x="1178" 
d="M50 0q7 97 7 155l45 55q1 1 94 121l545 699l156 205l-65 2h-312q-76 0 -169 -2.5t-214 -9.5q5 52 5 109q0 12 -1 31q206 -1 509 -1h192l274 1q-5 -62 -7 -154l-64 -77l-110 -142l-141 -186l-245 -318l-279 -356q34 -1 421 -1q219 0 366 10q-6 -80 -7 -141q-220 2 -476 2
l-345 -1z" />
    <glyph glyph-name="bracketleft" unicode="[" horiz-adv-x="655" 
d="M238 1365q91 -1 182 -1t182 1q-6 -42 -7 -105q-49 2 -102 2q-51 0 -104 -2l-41 -961l-20 -645q47 -1 103 -1t103 1q-2 -15 -4 -52.5t-2 -52.5q-79 2 -180 2q-102 0 -181 -2q46 822 71 1816z" />
    <glyph glyph-name="backslash" unicode="\" horiz-adv-x="844" 
d="M978 -451q-48 2 -70 2q-25 0 -65 -2l-200 465l-599 1351q44 -1 64 -1l64 1l173 -398l454 -1024z" />
    <glyph glyph-name="bracketright" unicode="]" horiz-adv-x="656" 
d="M386 -451q-62 2 -182 2q-121 0 -182 -2q5 39 7 105q43 -1 102 -1q56 0 104 1l41 961l20 645q-52 2 -103 2t-103 -2q2 17 4 53t2 52q73 -2 180 -2q108 0 181 2q-46 -820 -71 -1816z" />
    <glyph glyph-name="asciicircum" unicode="^" horiz-adv-x="1028" 
d="M218 763h-154l357 606h187l357 -606h-155l-297 495z" />
    <glyph glyph-name="underscore" unicode="_" horiz-adv-x="1028" 
d="M2 -144h1024v-111h-1024v111z" />
    <glyph glyph-name="grave" unicode="`" horiz-adv-x="1024" 
d="M621 1145q-30 2 -60 2q-37 0 -62 -2q-100 163 -168 262q57 -2 102 -2q53 0 101 2z" />
    <glyph glyph-name="a" unicode="a" horiz-adv-x="1088" 
d="M177 852q9 44 19 130q120 31 208.5 42.5t172.5 11.5q90 0 168.5 -16.5t130.5 -53.5t69 -85t17 -103q0 -69 -10.5 -231.5t-16 -300.5t-5.5 -246q-54 2 -88 2q-32 0 -91 -2l21 273l15 323q-35 -27 -52.5 -38t-39.5 -20.5t-48.5 -18t-103 -29.5t-108.5 -32q-69 -22 -109 -44
t-67 -48t-38 -52q-13 -32 -13 -67q0 -54 32 -94t80.5 -55.5t116.5 -15.5q42 0 88 6t123 31q-14 -39 -32 -120q-73 -14 -119 -17.5t-87 -3.5q-137 0 -214 32t-115 97.5t-38 142.5q0 45 13.5 83t36.5 69t65.5 62t89 51t108.5 39.5t199 52.5q44 10 75 20.5t55 20.5t42 23.5
t33 33t22 39.5t7 40q0 49 -32 84t-83.5 49t-121.5 14q-65 0 -133.5 -10.5t-118 -25t-123.5 -43.5z" />
    <glyph glyph-name="b" unicode="b" horiz-adv-x="1214" 
d="M118 0l9 112q2 30 6 113l28 678l12 462q61 -1 95 -1q35 0 89 1q-14 -128 -25 -368q105 23 172 31t132 8q126 0 222 -32t158.5 -106t88.5 -163t26 -189q0 -114 -31.5 -220.5t-95 -189t-154.5 -120.5t-199 -38q-58 0 -109 12.5t-92 34.5t-69.5 50t-47 56t-41.5 77l-3 -208
q-58 2 -82 2q-17 0 -89 -2zM322 862q-7 -166 -10 -219t-3 -127q0 -157 36 -241t108 -127t163 -43q105 0 181 53t118 161.5t42 225.5q0 165 -87.5 266t-263.5 101q-61 0 -126.5 -10.5t-157.5 -39.5z" />
    <glyph glyph-name="c" unicode="c" horiz-adv-x="967" 
d="M858 152q-2 -16 -10.5 -59.5t-14.5 -85.5q-73 -17 -140.5 -23t-118.5 -6q-108 0 -199.5 29t-159.5 95.5t-100 165t-32 207.5q0 147 52 279t164 207t305 75q142 0 277 -38q6 -85 11 -140q-95 30 -155 40.5t-111 10.5q-88 0 -157.5 -32t-118.5 -91t-70.5 -140t-21.5 -165
q0 -113 35 -198t122.5 -131.5t196.5 -46.5q106 0 246 47z" />
    <glyph glyph-name="d" unicode="d" horiz-adv-x="1215" 
d="M1059 0q-59 2 -82 2q-25 0 -87 -2l12 216q-32 -56 -55 -86.5t-54.5 -57.5t-73 -48.5t-92.5 -33.5t-108 -12q-97 0 -181.5 35t-143.5 100t-85 151.5t-26 180.5q0 126 49 248t138.5 201.5t202.5 110.5t240 31q88 0 209 -20q5 109 5 181q0 104 -1 168l91 -1q34 0 91 1
l-29 -564l-20 -646v-155zM915 890q-60 18 -102.5 23t-82.5 5q-96 0 -183.5 -27.5t-154 -90.5t-102.5 -160t-36 -190t34 -173.5t105.5 -126t166.5 -45.5q57 0 104 15.5t85.5 45.5t72.5 81t54 118q17 59 25 159q4 49 9 189z" />
    <glyph glyph-name="e" unicode="e" horiz-adv-x="1087" 
d="M942 159q-12 -55 -24 -140q-96 -24 -166.5 -32.5t-140.5 -8.5q-125 0 -224.5 30t-170.5 104.5t-102 170.5t-31 203q0 149 57 276.5t171.5 200.5t290.5 73q91 0 174 -26.5t138 -80.5t85 -133.5t30 -173.5q0 -36 -6 -70h-763q-4 -55 -4 -84q0 -105 44 -193.5t130 -134
t198 -45.5q129 0 314 64zM268 635h596q-1 63 -8 98t-26 72.5t-51.5 65t-78 42t-98.5 14.5q-57 0 -108.5 -16t-91 -44t-67 -65.5t-41 -72.5t-26.5 -94z" />
    <glyph glyph-name="f" unicode="f" horiz-adv-x="604" 
d="M140 0l11 184l27 704h-125q5 49 8 123h129q2 93 4.5 142.5t13 89t31 67t57 50.5t85 33.5t111.5 10.5q83 0 193 -25q2 -60 10 -127q-95 33 -173 33q-38 0 -70 -10t-51.5 -26.5t-32 -43.5t-17 -64t-4.5 -87l-1 -43h278q-5 -43 -9 -123h-268l-18 -511l-9 -377q-62 2 -91 2
q-28 0 -89 -2z" />
    <glyph glyph-name="g" unicode="g" horiz-adv-x="1235" 
d="M176 -293q132 -40 221 -54t162 -14q83 0 154 23q59 19 101 54q32 27 53 70q26 57 37 145q9 71 14 283q-24 -45 -43.5 -73t-52.5 -57.5t-77 -52.5t-102 -36.5t-120 -13.5q-91 0 -170.5 25t-142 83t-95 148t-32.5 188q0 135 48.5 257t142 204t211 116t257.5 34
q154 0 383 -41l-11 -123l-30 -561q0 -17 -5 -204l-6 -207q-5 -66 -18 -116q-12 -41 -32 -78q-18 -34 -45 -62q-26 -29 -61 -52t-75 -37q-56 -20 -116 -29q-68 -11 -136 -11q-98 0 -192.5 10t-211.5 38l-3 55q-1 20 -7 89zM945 887q-112 22 -209 22q-98 0 -181.5 -23
t-153 -84t-108.5 -158t-39 -201q0 -97 35.5 -177t109.5 -120.5t168 -40.5q81 0 144.5 28.5t112.5 87.5q51 61 76 140q19 56 29 166q8 88 16 360z" />
    <glyph glyph-name="h" unicode="h" horiz-adv-x="1245" 
d="M118 0l25 435l23 593l6 337l91 -1q34 0 89 1l-22 -347l-8 -207q24 43 41.5 68.5t45 51t57.5 43.5t67 31.5t89 22.5t109 9q85 0 162.5 -19t133 -63t76 -105t20.5 -124q0 -25 -1 -66q-3 -62 -8 -145l-17 -368q-3 -60 -4 -147q-58 2 -89 2q-34 0 -95 -2q11 108 25.5 340
t14.5 322q0 80 -29 132.5t-96 80.5t-149 28q-75 0 -140 -23q-59 -21 -100.5 -59t-66.5 -93q-27 -59 -38 -119q-17 -95 -24 -264q-4 -101 -11 -345q-56 2 -84 2q-26 0 -93 -2z" />
    <glyph glyph-name="i" unicode="i" horiz-adv-x="461" 
d="M163 1231q3 94 3 142q55 -2 97 -2q53 0 96 2q-2 -31 -6 -142q-54 1 -93 1t-97 -1zM118 0l17 252l19 430l8 331l92 -1l90 1q-11 -156 -20 -326.5t-14.5 -372.5t-5.5 -314q-63 2 -90 2q-25 0 -96 -2z" />
    <glyph glyph-name="j" unicode="j" horiz-adv-x="462" 
d="M159 1232q3 57 5 141q43 -2 97 -2q49 0 95 2q-3 -50 -6 -141q-54 2 -96 2q-41 0 -95 -2zM337 1013l-20 -441l-16 -447q-9 -268 -18 -333q-9 -75 -27 -117q-15 -34 -38 -61t-59 -49q-39 -24 -82 -35q-58 -15 -135 -15q-122 0 -263 31q-2 56 -13 141q118 -43 218 -43
q56 0 103 20q40 16 67 43q22 23 38 66q20 51 27 130q9 110 19 321q3 63 11 306q10 339 10 392l-1 91q63 -1 91 -1t88 1z" />
    <glyph glyph-name="k" unicode="k" horiz-adv-x="982" 
d="M115 0l17 271l21 519l11 435q1 95 1 140l93 -1q27 0 87 1q-13 -161 -31.5 -625.5t-21.5 -739.5q-62 2 -87 2q-28 0 -90 -2zM321 565l204 218q107 114 202 230q69 -1 100 -1q39 0 107 1l-432 -449q121 -158 468 -564q-62 2 -100 2t-103 -2l-147 195l-93 114l-155 189z" />
    <glyph glyph-name="l" unicode="l" horiz-adv-x="459" 
d="M114 0q20 308 39 730q13 307 19 635l93 -1q29 0 89 1l-31 -587l-22 -594l-4 -184q-59 2 -88 2q-12 0 -95 -2z" />
    <glyph glyph-name="m" unicode="m" horiz-adv-x="1757" 
d="M111 0l11 145q3 46 8 145l24 609q1 75 1 114q47 -1 86 -1q42 0 83 1l-9 -186q34 56 61.5 89t72.5 61t102.5 43.5t119.5 15.5q43 0 85 -10t77.5 -28t61 -41t41 -50t31.5 -78q61 115 152.5 161t204.5 46q72 0 139.5 -23t107.5 -66t53.5 -89.5t13.5 -93.5q0 -48 -7 -144
t-16 -292.5t-10 -327.5q-53 2 -83 2q-32 0 -95 -2q11 135 19 294l13 248q5 90 5 155q0 58 -12 90.5t-38.5 58.5t-65.5 39.5t-89 13.5q-40 0 -74 -9q-32 -9 -62 -27q-33 -19 -59 -47q-26 -27 -44 -61q-19 -35 -31 -83q-15 -60 -21 -147q-7 -93 -11 -245l-8 -280q-58 2 -87 2
q-27 0 -91 -2q10 124 16 255l12 242q5 112 5 191q0 51 -10 86.5t-37.5 65t-66.5 45t-86 15.5q-50 0 -95 -17.5t-83 -51.5t-64 -83.5t-40.5 -130t-23 -280.5t-8.5 -337q-64 2 -88 2q-26 0 -91 -2z" />
    <glyph glyph-name="n" unicode="n" horiz-adv-x="1235" 
d="M107 0q48 627 50 1013l90 -1q33 0 87 1l-13 -200q25 42 40 64.5t40 47.5t59 46.5t80 36t93.5 21.5t94.5 7q86 0 166 -21t131.5 -68.5t69 -106.5t17.5 -127q0 -13 -1 -50t-4 -97l-20 -419q-2 -60 -3 -147q-45 2 -85 2q-49 0 -92 -2q10 121 15 233l13 233q6 120 6 181
q0 88 -30 140.5t-96 81t-148 28.5q-116 0 -199 -55q-76 -51 -118 -145q-29 -67 -41 -198q-15 -157 -21 -499q-56 2 -87 2t-94 -2z" />
    <glyph glyph-name="o" unicode="o" horiz-adv-x="1206" 
d="M617 1036q105 0 200 -30t164.5 -95t105.5 -164t36 -209q0 -119 -38.5 -228t-108 -185t-170 -111.5t-215.5 -35.5q-107 0 -202 32t-164.5 100t-105.5 166.5t-36 206.5q0 163 66 293.5t194 195t274 64.5zM613 909q-102 0 -187.5 -51t-126.5 -153.5t-41 -223.5
q0 -106 34 -190.5t112 -136.5t188 -52q75 0 142 25.5t117 84.5t74 144.5t24 179.5q0 88 -24 165t-73.5 123.5t-112 65.5t-126.5 19z" />
    <glyph glyph-name="p" unicode="p" horiz-adv-x="1206" 
d="M92 -452q20 258 37.5 702t19.5 726q164 35 262.5 47.5t197.5 12.5q156 0 271 -49.5t179 -174t64 -281.5q0 -109 -30 -210.5t-91.5 -181.5t-148.5 -120.5t-194 -40.5q-64 0 -123 15.5t-102.5 40.5t-73 56t-71.5 93l-12 -396q-4 -97 -4 -140v-99q-51 2 -89 2q-35 0 -92 -2z
M321 857l-7 -76l-5 -104q-4 -82 -6 -133.5t-2 -72.5q0 -74 15.5 -140t62 -120.5t109.5 -82.5t130 -28q94 0 170.5 52t119.5 155t43 225q0 123 -45 212t-121 128.5t-172 39.5q-137 0 -292 -55z" />
    <glyph glyph-name="q" unicode="q" horiz-adv-x="1200" 
d="M856 -451l14 239q5 86 7 148l11 273q-41 -66 -72 -101t-79 -65t-107 -47.5t-124 -17.5q-89 0 -170 34t-139 97t-86 149.5t-28 180.5q0 134 51.5 258t143.5 201.5t210 107.5t256 30q54 0 123 -5t225 -31l-16 -216l-17 -389l-16 -548l-6 -298q-54 1 -89 1zM904 884
q-69 17 -109 21t-73 4q-141 0 -249.5 -57t-163.5 -170t-55 -248q0 -91 32 -166t102 -120.5t156 -45.5q75 0 139.5 31t113 93.5t73.5 144.5q13 46 20 126q9 109 14 387z" />
    <glyph glyph-name="r" unicode="r" horiz-adv-x="716" 
d="M110 0q36 577 36 921l-1 92q51 -1 84 -1q38 0 85 1l-8 -166q37 62 65.5 93.5t64.5 52t81.5 32t94.5 11.5q42 0 83 -10q1 -66 7 -148q-62 17 -111 17q-59 0 -106 -19.5t-84.5 -59t-61.5 -94.5q-20 -44 -30.5 -114t-16.5 -255q-4 -135 -4 -286v-67q-54 2 -87 2
q-30 0 -91 -2z" />
    <glyph glyph-name="s" unicode="s" horiz-adv-x="813" 
d="M66 19l-6 73q0 12 -8 76q154 -67 284 -67q68 0 115 18t70.5 53.5t23.5 73.5q0 21 -6.5 42t-19.5 40.5t-38.5 43t-106 88.5t-122 101.5t-71 75t-43.5 77.5t-14 79q0 64 40.5 124t117 89.5t179.5 29.5q115 0 253 -27q4 -78 10 -143q-112 46 -221 46q-59 0 -109.5 -15.5
t-74 -46.5t-23.5 -68q0 -24 8 -46t28.5 -47.5t49.5 -50.5t115.5 -94t118.5 -102t55 -68t33.5 -69.5t10.5 -70.5q0 -70 -41.5 -130t-123.5 -93t-184 -33q-43 0 -101 5.5t-98.5 13t-100.5 22.5z" />
    <glyph glyph-name="t" unicode="t" horiz-adv-x="658" 
d="M624 132q-11 -49 -24 -130q-68 -16 -108 -20t-76 -4q-89 0 -143.5 22.5t-83.5 72t-29 134.5q0 11 1 39t10 195l24 448h-133q4 42 7 120h136q5 56 10 191q94 18 159 34q-7 -148 -8 -225h278q-5 -63 -6 -120h-277l-27 -563l-1 -43q0 -73 16.5 -109.5t49.5 -52.5t69 -16
q25 0 54 4t102 23z" />
    <glyph glyph-name="u" unicode="u" horiz-adv-x="1220" 
d="M1064 0q-49 2 -84 2q-40 0 -83 -2l5 193q-24 -45 -41.5 -69.5t-43.5 -48t-53.5 -39.5t-64.5 -28.5t-86.5 -21t-105.5 -8.5q-122 0 -208.5 37t-131 105t-44.5 186q0 18 2 61t6 112l17 333l3 107q1 37 1 94l92 -1q28 0 86 1q-14 -175 -26.5 -383t-12.5 -266
q0 -88 28.5 -140.5t95 -81t150.5 -28.5q74 0 142 26q58 23 98 62q43 43 72 111q21 50 32 129q7 57 14 205q8 180 11 366l93 -1q30 0 84 1q-14 -180 -33 -547q-11 -202 -14 -466z" />
    <glyph glyph-name="v" unicode="v" horiz-adv-x="1008" 
d="M383 0l-34 101l-80 223l-251 689q61 -1 96 -1q38 0 90 1l21 -70q9 -30 31 -96l235 -697l318 764l38 99q59 -1 94 -1t94 1l-130 -279l-261 -582l-64 -152q-62 2 -97 2q-36 0 -100 -2z" />
    <glyph glyph-name="w" unicode="w" horiz-adv-x="1710" 
d="M375 0l-47 145l-310 868q55 -1 89 -1q32 0 82 1l88 -269l203 -589l316 858q54 -1 92 -1q41 0 90 1l231 -858l280 664l78 194q54 -1 83 -1l86 1l-337 -754l-110 -259q-50 2 -92 2q-43 0 -101 -2l-184 702q-18 69 -38 137l-20 -52q-9 -22 -41 -111l-211 -576l-35 -100
q-51 2 -92 2q-44 0 -100 -2z" />
    <glyph glyph-name="x" unicode="x" horiz-adv-x="989" 
d="M-27 0l268 360l135 185l-299 468q73 -1 107 -1q46 0 97 1q55 -106 215 -367q195 275 254 367q52 -1 96 -1q40 0 98 1l-170 -225l-177 -240l192 -303l159 -245q-61 2 -101 2q-47 0 -106 -2q-51 100 -128 226l-133 218l-123 -175q-105 -148 -183 -269q-59 2 -96 2
q-41 0 -105 -2z" />
    <glyph glyph-name="y" unicode="y" horiz-adv-x="1004" 
d="M-53 -463q-7 85 -17 144q50 -24 93 -32.5t73 -8.5q39 0 76 14t60 37t48.5 63.5t54 95.5t54.5 123l-213 607l-156 434q73 -2 97 -2q28 0 91 2q16 -70 27 -107t48 -151l151 -459q25 -78 50 -168l113 276l209 489q9 22 17.5 45.5l26.5 74.5q64 -2 89 -2q21 0 93 2l-189 -415
l-371 -825q-39 -83 -71 -126q-26 -34 -56 -59q-24 -21 -54 -36q-37 -18 -80 -28q-47 -10 -96 -10q-77 0 -168 22z" />
    <glyph glyph-name="z" unicode="z" horiz-adv-x="909" 
d="M43 0q4 63 5 150l52 61q16 18 30 36l520 645q-92 1 -194 1q-161 0 -344 -11q5 67 5 131q165 -1 374 -1q189 0 348 1q-3 -38 -4 -81l-3 -75l-73 -88l-525 -645q97 -4 189 -4q241 0 377 10q-7 -54 -9 -130q-164 2 -359 2q-241 0 -389 -2z" />
    <glyph glyph-name="braceleft" unicode="{" horiz-adv-x="815" 
d="M362 455q24 -12 38 -22t27 -28t21.5 -40t12.5 -51.5t4 -69.5q0 -53 -5 -140l-9 -144q-4 -57 -4 -105q0 -59 6 -89t19 -50.5t34.5 -34t53 -20t74.5 -7.5q-6 -37 -8 -105q-78 0 -128 9q-76 15 -114.5 42.5t-59.5 77.5q-25 58 -25 147q0 30 6 125l10 185q6 90 6 122
q0 34 -6.5 61t-17 43t-28 30t-31.5 21t-34 11q5 30 6 66q27 8 49 22q30 19 45 39t23 50.5t11 92.5q2 30 4.5 190.5t6.5 220t21.5 105t43 74.5t67 48.5t92.5 26.5t127 7q-5 -36 -8 -105q-55 -3 -87 -12.5t-49.5 -22t-31 -33.5t-21.5 -51.5t-11.5 -100.5t-3.5 -162
q0 -33 -1 -102t-6 -120.5t-13 -81.5t-22 -51.5t-31 -36t-53 -31.5z" />
    <glyph glyph-name="bar" unicode="|" horiz-adv-x="1028" 
d="M435 1365h159v-1706h-159v1706z" />
    <glyph glyph-name="braceright" unicode="}" horiz-adv-x="815" 
d="M413 456q-33 16 -48.5 29.5t-29.5 38t-20 60.5t-6 79q0 72 9.5 215.5t9.5 202.5q0 58 -11 86.5t-31 49.5t-53 31t-88 12l2 79q0 11 -1 26q69 0 101 -4q59 -8 104 -27t70.5 -47t39.5 -72q16 -51 16 -105q0 -18 -5 -104l-11 -198q-7 -111 -7 -146q0 -43 9 -78t40 -60.5
t67 -34.5q-4 -31 -6 -66q-25 -6 -45 -19q-25 -15 -39 -30.5t-23.5 -36.5t-14.5 -55.5t-7 -117.5l-3 -168q-2 -123 -8 -179q-6 -69 -23 -114.5t-44 -74.5t-63 -46q-44 -19 -104 -27q-31 -4 -114 -6q5 36 8 105q53 1 89.5 12.5t59.5 34t33.5 50t15.5 104.5t5 191q0 61 3 138
t8.5 111.5t15.5 59.5t23.5 43.5t29 30.5t46.5 27z" />
    <glyph glyph-name="asciitilde" unicode="~" horiz-adv-x="1370" 
d="M282 489l-87 66q15 32 31 59t40.5 59.5t44.5 50t46.5 32t56 22.5t59.5 8q33 0 66 -9t75.5 -26.5t104.5 -48t89 -42t50.5 -16.5t42.5 -5q57 0 101.5 36.5t86.5 114.5l88 -64q-17 -37 -30.5 -60.5t-36.5 -52.5t-49.5 -51t-55.5 -36t-61.5 -21.5t-59.5 -7.5q-16 0 -34.5 3
t-50.5 13.5t-49.5 18.5t-99 48t-118.5 51t-66 11q-51 0 -95.5 -36t-88.5 -117z" />
    <glyph glyph-name="Adieresis" unicode="&#xc4;" horiz-adv-x="1425" 
d="M-47 0l182 344l464 907l54 114l116 -1q54 0 117 1l173 -490l320 -875l-95 2q-27 0 -107 -2q-27 96 -89.5 278t-105.5 295h-547l-145 -299l-128 -274l-102 2q-25 0 -107 -2zM494 705h450l-186 529zM847 1562l6 129q48 -1 76 -1t74 1l-4 -129q-37 2 -74 2q-36 0 -78 -2z
M554 1562l5 129q49 -1 77 -1t74 1l-4 -129q-37 2 -74 2q-36 0 -78 -2z" />
    <glyph glyph-name="Aring" unicode="&#xc5;" horiz-adv-x="1425" 
d="M958 1639q0 -49 -25 -92.5t-68.5 -68.5t-92.5 -25q-50 0 -93 25t-68 68.5t-25 92.5q0 50 25 93t68 68t93 25q49 0 92.5 -25t68.5 -68t25 -93zM873 1638q0 42 -30 72t-71 30q-42 0 -72 -29.5t-30 -72.5q0 -42 30.5 -71.5t71.5 -29.5t71 29.5t30 71.5zM-47 0l182 344
l464 907l54 114l116 -1q54 0 117 1l173 -490l320 -875l-95 2q-27 0 -107 -2q-27 96 -89.5 278t-105.5 295h-547l-145 -299l-128 -274l-102 2q-25 0 -107 -2zM494 705h450l-186 529z" />
    <glyph glyph-name="Ccedilla" unicode="&#xc7;" horiz-adv-x="1288" 
d="M1193 174q-14 -72 -25 -156q-197 -40 -361 -40q-146 0 -282 44.5t-236.5 137.5t-146.5 219t-46 270q0 154 51 297t154.5 242.5t250 149t306.5 49.5q172 0 343 -36q1 -51 11 -156q-111 34 -189 45.5t-148 11.5q-119 0 -228 -36.5t-193 -116.5t-128.5 -196.5t-44.5 -242.5
q0 -117 35.5 -222t109 -177.5t174.5 -111t227 -38.5q159 0 366 63zM886 -98q-94 -183 -138 -277l-111 1l-112 -1l93 119.5l121 158.5q36 -3 82 -3q28 0 65 2z" />
    <glyph glyph-name="Eacute" unicode="&#xc9;" horiz-adv-x="1158" 
d="M134 0l25 376l28 703l3 153q1 58 1 133q226 -1 463 -1l319 1h102q-7 -69 -9 -139l-89 5q-33 2 -113.5 3t-159.5 1q-236 0 -329 -3l-18 -469q154 -3 276 -3q133 0 349 4q-7 -70 -9 -138l-344 3q-101 0 -281 -4l-18 -494l104 -1q283 0 375.5 2t216.5 9q-7 -74 -9 -141
q-241 2 -407 2zM553 1493l92 262q49 -2 101 -2q47 0 102 2q-66 -93 -173 -262q-28 2 -62 2q-33 0 -60 -2z" />
    <glyph glyph-name="Ntilde" unicode="&#xd1;" horiz-adv-x="1546" 
d="M134 0l20 278l34 812l4 158q1 75 1 117q75 -1 125 -1q41 0 115 1l109 -176l661 -997l42 1173l89 -1l88 1l-22 -350l-27 -617l-12 -398q-59 2 -116 2q-52 0 -121 -2l-92 147l-677 1015q-4 -56 -8 -176l-28 -707l-6 -279q-65 2 -87 2q-16 0 -92 -2zM572 1529q0 78 13.5 124
t40.5 65t59 19q18 0 38.5 -6.5t43.5 -20.5t90 -61q25 -17 38.5 -24t27.5 -7q12 0 22.5 4.5t18.5 15.5t11.5 28.5t5.5 55.5q27 -1 45 -1q19 0 46 1q-1 -70 -13 -111.5t-37.5 -68t-67.5 -26.5q-17 0 -35 5.5t-40 19t-70 46.5t-66 41.5t-32 8.5q-11 0 -19.5 -3.5t-15 -12
t-10 -20t-5 -27t-2.5 -45.5q-30 2 -44 2t-43 -2z" />
    <glyph glyph-name="Odieresis" unicode="&#xd6;" horiz-adv-x="1649" 
d="M863 1387q148 0 281 -43t234.5 -142t144.5 -222t43 -267q0 -154 -48 -296t-148 -241t-246 -148.5t-307 -49.5q-153 0 -293.5 45t-239.5 138.5t-143 220t-44 268.5q0 156 53 299.5t156.5 242.5t250 147t306.5 48zM852 1254q-120 0 -227 -38.5t-186.5 -123.5t-118 -200
t-38.5 -240q0 -116 38 -222.5t112 -177.5t178 -105.5t217 -34.5q116 0 221.5 37t182 117.5t113.5 194.5t37 239q0 118 -33.5 225.5t-107 183.5t-174.5 110.5t-214 34.5zM939 1562l6 129q48 -1 76 -1t74 1l-4 -129q-37 2 -74 2q-36 0 -78 -2zM646 1562l5 129q49 -1 77 -1
t74 1l-4 -129q-37 2 -74 2q-36 0 -78 -2z" />
    <glyph glyph-name="Udieresis" unicode="&#xdc;" horiz-adv-x="1487" 
d="M184 1365l99 -1l97 1l-45 -763l-3 -93v-19q0 -139 41 -215.5t130.5 -118.5t226.5 -42q92 0 170 24q65 21 110.5 56t75.5 86q28 49 40 111q14 78 25 272l18 322q8 178 11 380l103 -1l93 1l-29 -471l-18 -390q-9 -136 -29 -211q-15 -53 -44 -100q-26 -42 -64 -75
q-45 -40 -109 -71q-68 -32 -144 -48q-109 -21 -226 -21q-114 0 -213 23q-86 20 -158 61t-115 93q-36 42 -57 106q-24 72 -24 159q0 93 7.5 213t19 362t11.5 370zM867 1562l6 129q48 -1 76 -1t74 1l-4 -129q-37 2 -74 2q-36 0 -78 -2zM574 1562l5 129q49 -1 77 -1t74 1
l-4 -129q-37 2 -74 2q-36 0 -78 -2z" />
    <glyph glyph-name="aacute" unicode="&#xe1;" horiz-adv-x="1088" 
d="M177 852q9 44 19 130q120 31 208.5 42.5t172.5 11.5q90 0 168.5 -16.5t130.5 -53.5t69 -85t17 -103q0 -69 -10.5 -231.5t-16 -300.5t-5.5 -246q-54 2 -88 2q-32 0 -91 -2l21 273l15 323q-35 -27 -52.5 -38t-39.5 -20.5t-48.5 -18t-103 -29.5t-108.5 -32q-69 -22 -109 -44
t-67 -48t-38 -52q-13 -32 -13 -67q0 -54 32 -94t80.5 -55.5t116.5 -15.5q42 0 88 6t123 31q-14 -39 -32 -120q-73 -14 -119 -17.5t-87 -3.5q-137 0 -214 32t-115 97.5t-38 142.5q0 45 13.5 83t36.5 69t65.5 62t89 51t108.5 39.5t199 52.5q44 10 75 20.5t55 20.5t42 23.5
t33 33t22 39.5t7 40q0 49 -32 84t-83.5 49t-121.5 14q-65 0 -133.5 -10.5t-118 -25t-123.5 -43.5zM480 1145l92 262q49 -2 101 -2q47 0 102 2q-66 -93 -173 -262q-28 2 -62 2q-33 0 -60 -2z" />
    <glyph glyph-name="agrave" unicode="&#xe0;" horiz-adv-x="1088" 
d="M177 852q9 44 19 130q120 31 208.5 42.5t172.5 11.5q90 0 168.5 -16.5t130.5 -53.5t69 -85t17 -103q0 -69 -10.5 -231.5t-16 -300.5t-5.5 -246q-54 2 -88 2q-32 0 -91 -2l21 273l15 323q-35 -27 -52.5 -38t-39.5 -20.5t-48.5 -18t-103 -29.5t-108.5 -32q-69 -22 -109 -44
t-67 -48t-38 -52q-13 -32 -13 -67q0 -54 32 -94t80.5 -55.5t116.5 -15.5q42 0 88 6t123 31q-14 -39 -32 -120q-73 -14 -119 -17.5t-87 -3.5q-137 0 -214 32t-115 97.5t-38 142.5q0 45 13.5 83t36.5 69t65.5 62t89 51t108.5 39.5t199 52.5q44 10 75 20.5t55 20.5t42 23.5
t33 33t22 39.5t7 40q0 49 -32 84t-83.5 49t-121.5 14q-65 0 -133.5 -10.5t-118 -25t-123.5 -43.5zM658 1145q-30 2 -60 2q-37 0 -62 -2q-100 163 -168 262q57 -2 102 -2q53 0 101 2z" />
    <glyph glyph-name="acircumflex" unicode="&#xe2;" horiz-adv-x="1088" 
d="M177 852q9 44 19 130q120 31 208.5 42.5t172.5 11.5q90 0 168.5 -16.5t130.5 -53.5t69 -85t17 -103q0 -69 -10.5 -231.5t-16 -300.5t-5.5 -246q-54 2 -88 2q-32 0 -91 -2l21 273l15 323q-35 -27 -52.5 -38t-39.5 -20.5t-48.5 -18t-103 -29.5t-108.5 -32q-69 -22 -109 -44
t-67 -48t-38 -52q-13 -32 -13 -67q0 -54 32 -94t80.5 -55.5t116.5 -15.5q42 0 88 6t123 31q-14 -39 -32 -120q-73 -14 -119 -17.5t-87 -3.5q-137 0 -214 32t-115 97.5t-38 142.5q0 45 13.5 83t36.5 69t65.5 62t89 51t108.5 39.5t199 52.5q44 10 75 20.5t55 20.5t42 23.5
t33 33t22 39.5t7 40q0 49 -32 84t-83.5 49t-121.5 14q-65 0 -133.5 -10.5t-118 -25t-123.5 -43.5zM350 1160q81 144 126 233l111 -2q8 0 106 2q44 -96 116 -233q-32 1 -56 1q-20 0 -54 -1l-114 160l-125 -160q-24 1 -53 1q-34 0 -57 -1z" />
    <glyph glyph-name="adieresis" unicode="&#xe4;" horiz-adv-x="1088" 
d="M177 852q9 44 19 130q120 31 208.5 42.5t172.5 11.5q90 0 168.5 -16.5t130.5 -53.5t69 -85t17 -103q0 -69 -10.5 -231.5t-16 -300.5t-5.5 -246q-54 2 -88 2q-32 0 -91 -2l21 273l15 323q-35 -27 -52.5 -38t-39.5 -20.5t-48.5 -18t-103 -29.5t-108.5 -32q-69 -22 -109 -44
t-67 -48t-38 -52q-13 -32 -13 -67q0 -54 32 -94t80.5 -55.5t116.5 -15.5q42 0 88 6t123 31q-14 -39 -32 -120q-73 -14 -119 -17.5t-87 -3.5q-137 0 -214 32t-115 97.5t-38 142.5q0 45 13.5 83t36.5 69t65.5 62t89 51t108.5 39.5t199 52.5q44 10 75 20.5t55 20.5t42 23.5
t33 33t22 39.5t7 40q0 49 -32 84t-83.5 49t-121.5 14q-65 0 -133.5 -10.5t-118 -25t-123.5 -43.5zM647 1212l6 129q48 -1 76 -1t74 1l-4 -129q-37 2 -74 2q-36 0 -78 -2zM354 1212l5 129q49 -1 77 -1t74 1l-4 -129q-37 2 -74 2q-36 0 -78 -2z" />
    <glyph glyph-name="atilde" unicode="&#xe3;" horiz-adv-x="1088" 
d="M177 852q9 44 19 130q120 31 208.5 42.5t172.5 11.5q90 0 168.5 -16.5t130.5 -53.5t69 -85t17 -103q0 -69 -10.5 -231.5t-16 -300.5t-5.5 -246q-54 2 -88 2q-32 0 -91 -2l21 273l15 323q-35 -27 -52.5 -38t-39.5 -20.5t-48.5 -18t-103 -29.5t-108.5 -32q-69 -22 -109 -44
t-67 -48t-38 -52q-13 -32 -13 -67q0 -54 32 -94t80.5 -55.5t116.5 -15.5q42 0 88 6t123 31q-14 -39 -32 -120q-73 -14 -119 -17.5t-87 -3.5q-137 0 -214 32t-115 97.5t-38 142.5q0 45 13.5 83t36.5 69t65.5 62t89 51t108.5 39.5t199 52.5q44 10 75 20.5t55 20.5t42 23.5
t33 33t22 39.5t7 40q0 49 -32 84t-83.5 49t-121.5 14q-65 0 -133.5 -10.5t-118 -25t-123.5 -43.5zM328 1174q0 78 13.5 124t40.5 65t59 19q18 0 38.5 -6.5t43.5 -20.5t90 -61q25 -17 38.5 -24t27.5 -7q12 0 22.5 4.5t18.5 15.5t11.5 28.5t5.5 55.5q27 -1 45 -1q19 0 46 1
q-1 -70 -13 -111.5t-37.5 -68t-67.5 -26.5q-17 0 -35 5.5t-40 19t-70 46.5t-66 41.5t-32 8.5q-11 0 -19.5 -3.5t-15 -12t-10 -20t-5 -27t-2.5 -45.5q-30 2 -44 2t-43 -2z" />
    <glyph glyph-name="aring" unicode="&#xe5;" horiz-adv-x="1088" 
d="M177 852q9 44 19 130q120 31 208.5 42.5t172.5 11.5q90 0 168.5 -16.5t130.5 -53.5t69 -85t17 -103q0 -69 -10.5 -231.5t-16 -300.5t-5.5 -246q-54 2 -88 2q-32 0 -91 -2l21 273l15 323q-35 -27 -52.5 -38t-39.5 -20.5t-48.5 -18t-103 -29.5t-108.5 -32q-69 -22 -109 -44
t-67 -48t-38 -52q-13 -32 -13 -67q0 -54 32 -94t80.5 -55.5t116.5 -15.5q42 0 88 6t123 31q-14 -39 -32 -120q-73 -14 -119 -17.5t-87 -3.5q-137 0 -214 32t-115 97.5t-38 142.5q0 45 13.5 83t36.5 69t65.5 62t89 51t108.5 39.5t199 52.5q44 10 75 20.5t55 20.5t42 23.5
t33 33t22 39.5t7 40q0 49 -32 84t-83.5 49t-121.5 14q-65 0 -133.5 -10.5t-118 -25t-123.5 -43.5zM761 1322q0 -49 -25 -92t-68 -67.5t-92 -24.5t-92 24.5t-67.5 67.5t-24.5 92t24.5 92t67.5 68t92 25t92 -25t68 -68t25 -92zM679 1321q0 42 -30 72t-73 30q-42 0 -72.5 -30
t-30.5 -72t30.5 -72.5t72.5 -30.5q43 0 73 30.5t30 72.5z" />
    <glyph glyph-name="ccedilla" unicode="&#xe7;" horiz-adv-x="967" 
d="M858 152q-2 -16 -10.5 -59.5t-14.5 -85.5q-73 -17 -140.5 -23t-118.5 -6q-108 0 -199.5 29t-159.5 95.5t-100 165t-32 207.5q0 147 52 279t164 207t305 75q142 0 277 -38q6 -85 11 -140q-95 30 -155 40.5t-111 10.5q-88 0 -157.5 -32t-118.5 -91t-70.5 -140t-21.5 -165
q0 -113 35 -198t122.5 -131.5t196.5 -46.5q106 0 246 47zM645 -96l-57 -112l-68 -136q-65 2 -105 2q-38 0 -108 -2l207 250q27 -4 71 -4q34 0 60 2z" />
    <glyph glyph-name="eacute" unicode="&#xe9;" horiz-adv-x="1087" 
d="M942 159q-12 -55 -24 -140q-96 -24 -166.5 -32.5t-140.5 -8.5q-125 0 -224.5 30t-170.5 104.5t-102 170.5t-31 203q0 149 57 276.5t171.5 200.5t290.5 73q91 0 174 -26.5t138 -80.5t85 -133.5t30 -173.5q0 -36 -6 -70h-763q-4 -55 -4 -84q0 -105 44 -193.5t130 -134
t198 -45.5q129 0 314 64zM268 635h596q-1 63 -8 98t-26 72.5t-51.5 65t-78 42t-98.5 14.5q-57 0 -108.5 -16t-91 -44t-67 -65.5t-41 -72.5t-26.5 -94zM498 1145l92 262q49 -2 101 -2q47 0 102 2q-66 -93 -173 -262q-28 2 -62 2q-33 0 -60 -2z" />
    <glyph glyph-name="egrave" unicode="&#xe8;" horiz-adv-x="1087" 
d="M942 159q-12 -55 -24 -140q-96 -24 -166.5 -32.5t-140.5 -8.5q-125 0 -224.5 30t-170.5 104.5t-102 170.5t-31 203q0 149 57 276.5t171.5 200.5t290.5 73q91 0 174 -26.5t138 -80.5t85 -133.5t30 -173.5q0 -36 -6 -70h-763q-4 -55 -4 -84q0 -105 44 -193.5t130 -134
t198 -45.5q129 0 314 64zM268 635h596q-1 63 -8 98t-26 72.5t-51.5 65t-78 42t-98.5 14.5q-57 0 -108.5 -16t-91 -44t-67 -65.5t-41 -72.5t-26.5 -94zM674 1145q-30 2 -60 2q-37 0 -62 -2q-100 163 -168 262q57 -2 102 -2q53 0 101 2z" />
    <glyph glyph-name="ecircumflex" unicode="&#xea;" horiz-adv-x="1087" 
d="M942 159q-12 -55 -24 -140q-96 -24 -166.5 -32.5t-140.5 -8.5q-125 0 -224.5 30t-170.5 104.5t-102 170.5t-31 203q0 149 57 276.5t171.5 200.5t290.5 73q91 0 174 -26.5t138 -80.5t85 -133.5t30 -173.5q0 -36 -6 -70h-763q-4 -55 -4 -84q0 -105 44 -193.5t130 -134
t198 -45.5q129 0 314 64zM268 635h596q-1 63 -8 98t-26 72.5t-51.5 65t-78 42t-98.5 14.5q-57 0 -108.5 -16t-91 -44t-67 -65.5t-41 -72.5t-26.5 -94zM367 1160q81 144 126 233l111 -2q8 0 106 2q44 -96 116 -233q-32 1 -56 1q-20 0 -54 -1l-114 160l-125 -160q-24 1 -53 1
q-34 0 -57 -1z" />
    <glyph glyph-name="edieresis" unicode="&#xeb;" horiz-adv-x="1087" 
d="M942 159q-12 -55 -24 -140q-96 -24 -166.5 -32.5t-140.5 -8.5q-125 0 -224.5 30t-170.5 104.5t-102 170.5t-31 203q0 149 57 276.5t171.5 200.5t290.5 73q91 0 174 -26.5t138 -80.5t85 -133.5t30 -173.5q0 -36 -6 -70h-763q-4 -55 -4 -84q0 -105 44 -193.5t130 -134
t198 -45.5q129 0 314 64zM268 635h596q-1 63 -8 98t-26 72.5t-51.5 65t-78 42t-98.5 14.5q-57 0 -108.5 -16t-91 -44t-67 -65.5t-41 -72.5t-26.5 -94zM664 1212l6 129q48 -1 76 -1t74 1l-4 -129q-37 2 -74 2q-36 0 -78 -2zM371 1212l5 129q49 -1 77 -1t74 1l-4 -129
q-37 2 -74 2q-36 0 -78 -2z" />
    <glyph glyph-name="iacute" unicode="&#xed;" horiz-adv-x="461" 
d="M118 0l17 252l19 430l8 331l92 -1l90 1q-11 -156 -20 -326.5t-14.5 -372.5t-5.5 -314q-63 2 -90 2q-25 0 -96 -2zM163 1145l92 262q49 -2 101 -2q47 0 102 2q-66 -93 -173 -262q-28 2 -62 2q-33 0 -60 -2z" />
    <glyph glyph-name="igrave" unicode="&#xec;" horiz-adv-x="461" 
d="M122 0l17 252l19 430l8 331l92 -1l90 1q-11 -156 -20 -326.5t-14.5 -372.5t-5.5 -314q-63 2 -90 2q-25 0 -96 -2zM346 1145q-30 2 -60 2q-37 0 -62 -2q-100 163 -168 262q57 -2 102 -2q53 0 101 2z" />
    <glyph glyph-name="icircumflex" unicode="&#xee;" horiz-adv-x="461" 
d="M137 0l17 252l19 430l8 331l92 -1l90 1q-11 -156 -20 -326.5t-14.5 -372.5t-5.5 -314q-63 2 -90 2q-25 0 -96 -2zM46 1160q81 144 126 233l111 -2q8 0 106 2q44 -96 116 -233q-32 1 -56 1q-20 0 -54 -1l-114 160l-125 -160q-24 1 -53 1q-34 0 -57 -1z" />
    <glyph glyph-name="idieresis" unicode="&#xef;" horiz-adv-x="461" 
d="M151 0l17 252l19 430l8 331l92 -1l90 1q-11 -156 -20 -326.5t-14.5 -372.5t-5.5 -314q-63 2 -90 2q-25 0 -96 -2zM359 1213l6 129q48 -1 76 -1t74 1l-4 -129q-37 2 -74 2q-36 0 -78 -2zM66 1213l5 129q49 -1 77 -1t74 1l-4 -129q-37 2 -74 2q-36 0 -78 -2z" />
    <glyph glyph-name="ntilde" unicode="&#xf1;" horiz-adv-x="1235" 
d="M107 0q48 627 50 1013l90 -1q33 0 87 1l-13 -200q25 42 40 64.5t40 47.5t59 46.5t80 36t93.5 21.5t94.5 7q86 0 166 -21t131.5 -68.5t69 -106.5t17.5 -127q0 -13 -1 -50t-4 -97l-20 -419q-2 -60 -3 -147q-45 2 -85 2q-49 0 -92 -2q10 121 15 233l13 233q6 120 6 181
q0 88 -30 140.5t-96 81t-148 28.5q-116 0 -199 -55q-76 -51 -118 -145q-29 -67 -41 -198q-15 -157 -21 -499q-56 2 -87 2t-94 -2zM398 1174q0 78 13.5 124t40.5 65t59 19q18 0 38.5 -6.5t43.5 -20.5t90 -61q25 -17 38.5 -24t27.5 -7q12 0 22.5 4.5t18.5 15.5t11.5 28.5
t5.5 55.5q27 -1 45 -1q19 0 46 1q-1 -70 -13 -111.5t-37.5 -68t-67.5 -26.5q-17 0 -35 5.5t-40 19t-70 46.5t-66 41.5t-32 8.5q-11 0 -19.5 -3.5t-15 -12t-10 -20t-5 -27t-2.5 -45.5q-30 2 -44 2t-43 -2z" />
    <glyph glyph-name="oacute" unicode="&#xf3;" horiz-adv-x="1206" 
d="M617 1036q105 0 200 -30t164.5 -95t105.5 -164t36 -209q0 -119 -38.5 -228t-108 -185t-170 -111.5t-215.5 -35.5q-107 0 -202 32t-164.5 100t-105.5 166.5t-36 206.5q0 163 66 293.5t194 195t274 64.5zM613 909q-102 0 -187.5 -51t-126.5 -153.5t-41 -223.5
q0 -106 34 -190.5t112 -136.5t188 -52q75 0 142 25.5t117 84.5t74 144.5t24 179.5q0 88 -24 165t-73.5 123.5t-112 65.5t-126.5 19zM536 1145l92 262q49 -2 101 -2q47 0 102 2q-66 -93 -173 -262q-28 2 -62 2q-33 0 -60 -2z" />
    <glyph glyph-name="ograve" unicode="&#xf2;" horiz-adv-x="1206" 
d="M617 1036q105 0 200 -30t164.5 -95t105.5 -164t36 -209q0 -119 -38.5 -228t-108 -185t-170 -111.5t-215.5 -35.5q-107 0 -202 32t-164.5 100t-105.5 166.5t-36 206.5q0 163 66 293.5t194 195t274 64.5zM613 909q-102 0 -187.5 -51t-126.5 -153.5t-41 -223.5
q0 -106 34 -190.5t112 -136.5t188 -52q75 0 142 25.5t117 84.5t74 144.5t24 179.5q0 88 -24 165t-73.5 123.5t-112 65.5t-126.5 19zM712 1145q-30 2 -60 2q-37 0 -62 -2q-100 163 -168 262q57 -2 102 -2q53 0 101 2z" />
    <glyph glyph-name="ocircumflex" unicode="&#xf4;" horiz-adv-x="1206" 
d="M617 1036q105 0 200 -30t164.5 -95t105.5 -164t36 -209q0 -119 -38.5 -228t-108 -185t-170 -111.5t-215.5 -35.5q-107 0 -202 32t-164.5 100t-105.5 166.5t-36 206.5q0 163 66 293.5t194 195t274 64.5zM613 909q-102 0 -187.5 -51t-126.5 -153.5t-41 -223.5
q0 -106 34 -190.5t112 -136.5t188 -52q75 0 142 25.5t117 84.5t74 144.5t24 179.5q0 88 -24 165t-73.5 123.5t-112 65.5t-126.5 19zM406 1160q81 144 126 233l111 -2q8 0 106 2q44 -96 116 -233q-32 1 -56 1q-20 0 -54 -1l-114 160l-125 -160q-24 1 -53 1q-34 0 -57 -1z" />
    <glyph glyph-name="odieresis" unicode="&#xf6;" horiz-adv-x="1206" 
d="M617 1036q105 0 200 -30t164.5 -95t105.5 -164t36 -209q0 -119 -38.5 -228t-108 -185t-170 -111.5t-215.5 -35.5q-107 0 -202 32t-164.5 100t-105.5 166.5t-36 206.5q0 163 66 293.5t194 195t274 64.5zM613 909q-102 0 -187.5 -51t-126.5 -153.5t-41 -223.5
q0 -106 34 -190.5t112 -136.5t188 -52q75 0 142 25.5t117 84.5t74 144.5t24 179.5q0 88 -24 165t-73.5 123.5t-112 65.5t-126.5 19zM702 1212l6 129q48 -1 76 -1t74 1l-4 -129q-37 2 -74 2q-36 0 -78 -2zM409 1212l5 129q49 -1 77 -1t74 1l-4 -129q-37 2 -74 2q-36 0 -78 -2
z" />
    <glyph glyph-name="otilde" unicode="&#xf5;" horiz-adv-x="1206" 
d="M617 1036q105 0 200 -30t164.5 -95t105.5 -164t36 -209q0 -119 -38.5 -228t-108 -185t-170 -111.5t-215.5 -35.5q-107 0 -202 32t-164.5 100t-105.5 166.5t-36 206.5q0 163 66 293.5t194 195t274 64.5zM613 909q-102 0 -187.5 -51t-126.5 -153.5t-41 -223.5
q0 -106 34 -190.5t112 -136.5t188 -52q75 0 142 25.5t117 84.5t74 144.5t24 179.5q0 88 -24 165t-73.5 123.5t-112 65.5t-126.5 19zM384 1174q0 78 13.5 124t40.5 65t59 19q18 0 38.5 -6.5t43.5 -20.5t90 -61q25 -17 38.5 -24t27.5 -7q12 0 22.5 4.5t18.5 15.5t11.5 28.5
t5.5 55.5q27 -1 45 -1q19 0 46 1q-1 -70 -13 -111.5t-37.5 -68t-67.5 -26.5q-17 0 -35 5.5t-40 19t-70 46.5t-66 41.5t-32 8.5q-11 0 -19.5 -3.5t-15 -12t-10 -20t-5 -27t-2.5 -45.5q-30 2 -44 2t-43 -2z" />
    <glyph glyph-name="uacute" unicode="&#xfa;" horiz-adv-x="1223" 
d="M1067 0q-49 2 -84 2q-40 0 -83 -2l5 193q-24 -45 -41.5 -69.5t-43.5 -48t-53.5 -39.5t-64.5 -28.5t-86.5 -21t-105.5 -8.5q-122 0 -208.5 37t-131 105t-44.5 186q0 18 2 61t6 112l17 333l3 107q1 37 1 94l92 -1q28 0 86 1q-14 -175 -26.5 -383t-12.5 -266
q0 -88 28.5 -140.5t95 -81t150.5 -28.5q74 0 142 26q58 23 98 62q43 43 72 111q21 50 32 129q7 57 14 205q8 180 11 366l93 -1q30 0 84 1q-14 -180 -33 -547q-11 -202 -14 -466zM545 1145l92 262q49 -2 101 -2q47 0 102 2q-66 -93 -173 -262q-28 2 -62 2q-33 0 -60 -2z" />
    <glyph glyph-name="ugrave" unicode="&#xf9;" horiz-adv-x="1223" 
d="M1067 0q-49 2 -84 2q-40 0 -83 -2l5 193q-24 -45 -41.5 -69.5t-43.5 -48t-53.5 -39.5t-64.5 -28.5t-86.5 -21t-105.5 -8.5q-122 0 -208.5 37t-131 105t-44.5 186q0 18 2 61t6 112l17 333l3 107q1 37 1 94l92 -1q28 0 86 1q-14 -175 -26.5 -383t-12.5 -266
q0 -88 28.5 -140.5t95 -81t150.5 -28.5q74 0 142 26q58 23 98 62q43 43 72 111q21 50 32 129q7 57 14 205q8 180 11 366l93 -1q30 0 84 1q-14 -180 -33 -547q-11 -202 -14 -466zM722 1145q-30 2 -60 2q-37 0 -62 -2q-100 163 -168 262q57 -2 102 -2q53 0 101 2z" />
    <glyph glyph-name="ucircumflex" unicode="&#xfb;" horiz-adv-x="1223" 
d="M1067 0q-49 2 -84 2q-40 0 -83 -2l5 193q-24 -45 -41.5 -69.5t-43.5 -48t-53.5 -39.5t-64.5 -28.5t-86.5 -21t-105.5 -8.5q-122 0 -208.5 37t-131 105t-44.5 186q0 18 2 61t6 112l17 333l3 107q1 37 1 94l92 -1q28 0 86 1q-14 -175 -26.5 -383t-12.5 -266
q0 -88 28.5 -140.5t95 -81t150.5 -28.5q74 0 142 26q58 23 98 62q43 43 72 111q21 50 32 129q7 57 14 205q8 180 11 366l93 -1q30 0 84 1q-14 -180 -33 -547q-11 -202 -14 -466zM415 1160q81 144 126 233l111 -2q8 0 106 2q44 -96 116 -233q-32 1 -56 1q-20 0 -54 -1
l-114 160l-125 -160q-24 1 -53 1q-34 0 -57 -1z" />
    <glyph glyph-name="udieresis" unicode="&#xfc;" horiz-adv-x="1223" 
d="M1067 0q-49 2 -84 2q-40 0 -83 -2l5 193q-24 -45 -41.5 -69.5t-43.5 -48t-53.5 -39.5t-64.5 -28.5t-86.5 -21t-105.5 -8.5q-122 0 -208.5 37t-131 105t-44.5 186q0 18 2 61t6 112l17 333l3 107q1 37 1 94l92 -1q28 0 86 1q-14 -175 -26.5 -383t-12.5 -266
q0 -88 28.5 -140.5t95 -81t150.5 -28.5q74 0 142 26q58 23 98 62q43 43 72 111q21 50 32 129q7 57 14 205q8 180 11 366l93 -1q30 0 84 1q-14 -180 -33 -547q-11 -202 -14 -466zM712 1212l6 129q48 -1 76 -1t74 1l-4 -129q-37 2 -74 2q-36 0 -78 -2zM419 1212l5 129
q49 -1 77 -1t74 1l-4 -129q-37 2 -74 2q-36 0 -78 -2z" />
    <glyph glyph-name="dagger" unicode="&#x2020;" horiz-adv-x="1101" 
d="M654 900l175 1q20 0 205 4q-5 -53 -7 -135q-219 5 -380 5l-46 -1226q-40 2 -83 2t-82 -2l49 1226l-182 -1q-29 -1 -202 -4q6 52 7 135l204 -4l178 -1l17 465q35 -1 83 -1q49 0 84 1z" />
    <glyph glyph-name="degree" unicode="&#xb0;" horiz-adv-x="567" 
d="M499 1193q0 -51 -25.5 -95.5t-70 -70t-95.5 -25.5t-95.5 25.5t-70 70.5t-25.5 95q0 51 25.5 95.5t70 70t95.5 25.5t95.5 -25.5t70 -70t25.5 -95.5zM418 1193q0 46 -32 79t-78 33q-45 0 -77.5 -33t-32.5 -79t32.5 -78.5t77.5 -32.5q46 0 78 32.5t32 78.5z" />
    <glyph glyph-name="cent" unicode="&#xa2;" 
d="M936 326q-17 -83 -25 -143q-87 -20 -121.5 -25t-97.5 -7q-3 -69 -3 -133v-35q-37 2 -69 2q-31 0 -73 -2q8 102 10 175q-66 15 -104.5 29.5t-76.5 40.5t-72.5 67.5t-61.5 99t-41 126t-14 140.5q0 82 17 157t45.5 138.5t70.5 115t85.5 81.5t84.5 44.5t111 27.5q2 50 2 131
v28q41 -2 76 -2q37 0 72 2q-7 -63 -10 -149q63 -4 106.5 -12.5t105.5 -27.5q3 -73 10 -149q-125 56 -241 56q-87 0 -155 -34.5t-115.5 -99.5t-66.5 -144.5t-19 -158.5q0 -114 36 -195.5t111 -135.5t186 -54q46 0 97.5 9t139.5 37z" />
    <glyph glyph-name="sterling" unicode="&#xa3;" 
d="M1124 162l-21 -105l-8 -52q-75 -27 -161 -27q-33 0 -65.5 4t-70.5 13.5t-74.5 21t-97 33t-85.5 29t-56.5 12t-66.5 4.5q-39 0 -76.5 -7.5t-68 -21t-51 -28t-51.5 -41.5q5 62 7 161q50 36 77.5 62.5t54.5 68.5t42.5 96t15.5 116q0 63 -18 123q-117 -2 -196 -6
q10 46 22 127q96 -3 135 -3l-43.5 104t-34.5 85t-16 60t-6 64q0 77 37 143t107 110.5t151.5 61.5t170.5 17q69 0 126.5 -6t153.5 -26q3 -65 13 -152q-159 54 -282 54q-77 0 -144.5 -25t-109 -77t-41.5 -111q0 -31 6 -61t16 -57.5t36.5 -93.5t33.5 -88q150 0 429 4
q-3 -13 -24 -127q-172 3 -234 3q-99 0 -146 -2q16 -70 16 -134q0 -41 -8.5 -81t-23 -74t-32 -61.5t-51.5 -72.5q57 9 98 9q35 0 64.5 -3.5t50.5 -9t86.5 -27t122 -35t109.5 -13.5q36 0 67 5t53.5 12.5t61.5 24.5z" />
    <glyph glyph-name="section" unicode="&#xa7;" horiz-adv-x="1098" 
d="M884 1336q-1 -21 -1 -67q0 -30 1 -67q-87 35 -144.5 46.5t-102.5 11.5q-74 0 -122 -29.5t-73 -76t-25 -97.5q0 -30 7 -55t24.5 -51t37.5 -44t60.5 -43t99.5 -56q132 -70 200.5 -121t101 -116.5t32.5 -139.5q0 -44 -12 -88.5t-35.5 -86.5t-54 -75t-58.5 -54.5t-72 -50.5
q33 -31 50.5 -53t30.5 -50t20 -63t7 -72q0 -93 -47.5 -168.5t-132 -118.5t-190.5 -43q-63 0 -131 12t-167 41q1 27 1 47q0 25 -2 98q82 -33 142 -49t114 -16q65 0 118.5 26t82.5 80t29 110q0 27 -6 50.5t-22 49.5t-38.5 46.5t-62.5 46t-110 60.5t-111 57.5t-81.5 57.5
t-71 75t-44 84.5t-13.5 94.5q0 105 60.5 198.5t175.5 159.5q-36 34 -53.5 56t-31.5 51t-20 59.5t-6 61.5q0 87 46 164t127.5 117.5t206.5 40.5q56 0 117.5 -10.5t148.5 -40.5zM654 152q82 48 125 107.5t43 136.5q0 50 -13 89.5t-40.5 73t-71.5 62.5q-28 19 -142 78
q-62 32 -111 60q-36 -20 -57.5 -35t-47 -41.5t-43.5 -57.5t-26 -60t-8 -60q0 -47 18 -89t65 -84t157.5 -99t151.5 -81z" />
    <glyph glyph-name="bullet" unicode="&#x2022;" horiz-adv-x="1370" 
d="M966 696q0 -76 -37.5 -143t-103.5 -105t-140 -38q-75 0 -140.5 38.5t-103.5 105.5t-38 142q0 76 37.5 142.5t103.5 105t143 38.5q73 0 138 -38t103 -104.5t38 -143.5z" />
    <glyph glyph-name="paragraph" unicode="&#xb6;" 
d="M934 1266l-24 -544l-45 -1196q-34 2 -54 2q-19 0 -53 -2l48 1172l20 569h-131l-36 -845l-33 -896q-34 2 -53 2q-21 0 -54 -2l44 1106q-62 3 -86 6q-48 6 -96 23q-62 22 -107.5 56t-78 80.5t-49 102.5t-16.5 117q0 82 30.5 156t87.5 120.5t119.5 59t156.5 12.5l282 -1
q172 0 275 1q-5 -49 -6 -102q-16 2 -141 3z" />
    <glyph glyph-name="germandbls" unicode="&#xdf;" horiz-adv-x="1161" 
d="M107 0l8 79q4 40 10 138l28 530l11 270q4 76 19 129q13 45 33.5 78t55 63t81 53t102.5 34q68 13 144 13q104 0 184.5 -28t121.5 -84t41 -145q0 -35 -5 -68.5t-11 -51.5t-13 -28t-21.5 -20.5t-33 -20t-50.5 -23.5t-41 -18.5t-21 -14.5t-19 -20t-10.5 -21.5t-3.5 -27.5
q0 -41 21 -68.5t67 -58.5q92 -62 127 -88.5t73.5 -70t60.5 -96.5t22 -127q0 -70 -22.5 -133.5t-72.5 -108.5t-117.5 -66t-142.5 -21q-38 0 -97 6.5t-128 24.5q-4 59 -14 144q70 -26 119.5 -37t92.5 -11q88 0 149.5 58t61.5 155q0 29 -5.5 55t-16.5 50.5t-25.5 45t-38.5 44
t-39 35l-73 54.5l-58 43q-9 6 -28 24t-31.5 39t-17 47.5t-4.5 52.5q0 36 7.5 65t19 46t30 28.5t59.5 24t57 24t26 39.5t10 73q0 61 -25 95t-68 50.5t-100 16.5q-68 0 -119 -19q-39 -15 -69 -44q-32 -32 -48 -69.5t-23 -101.5q-4 -39 -15 -252l-20 -404q-10 -208 -13 -380
q-57 2 -91 2q-29 0 -91 -2z" />
    <glyph glyph-name="registered" unicode="&#xae;" horiz-adv-x="1625" 
d="M848 1386q149 0 282 -43.5t231.5 -140.5t140 -222t41.5 -267q0 -154 -47.5 -296t-143.5 -239.5t-241 -148t-303 -50.5q-153 0 -294 46.5t-235.5 137.5t-138 218t-43.5 267q0 157 53.5 303.5t155 244.5t244 144t298.5 46zM845 1304q-139 0 -263 -41t-214.5 -134
t-133.5 -218.5t-43 -262.5q0 -128 44.5 -246t130.5 -195.5t202 -111.5t245 -34q136 0 257.5 38.5t209 126.5t128.5 211.5t41 260.5q0 131 -38 249t-121.5 200.5t-199 119.5t-245.5 37zM553 304q12 128 21.5 362t9.5 407l122 -1l153 2q43 0 79 -4t58 -11.5t45.5 -24t40 -38.5
t24.5 -49t8 -57q0 -41 -12 -76t-35.5 -64.5t-53 -47.5t-56.5 -24.5t-81 -16.5q38 -63 94 -145l143 -212q-56 2 -76 2l-65 -1l-46 82l-35.5 62.5t-48.5 78.5l-131 208q62 -11 95 -11q55 0 99.5 17.5t68 53.5t23.5 79q0 23 -7 43.5t-24.5 35.5t-37.5 21t-43 8.5t-80 2.5
q-37 0 -104 -1q-9 -171 -14.5 -379.5t-5.5 -301.5q-51 2 -65 2q-15 0 -63 -2z" />
    <glyph glyph-name="copyright" unicode="&#xa9;" horiz-adv-x="1625" 
d="M848 1386q149 0 282 -43.5t231.5 -140.5t140 -222t41.5 -267q0 -154 -47.5 -296t-143.5 -239.5t-241 -148t-303 -50.5q-153 0 -294 46.5t-235.5 137.5t-138 218t-43.5 267q0 157 53.5 303.5t155 244.5t244 144t298.5 46zM845 1304q-139 0 -263 -41t-214.5 -134
t-133.5 -218.5t-43 -262.5q0 -128 44.5 -246t130.5 -195.5t202 -111.5t245 -34q136 0 257.5 38.5t209 126.5t128.5 211.5t41 260.5q0 131 -38 249t-121.5 200.5t-199 119.5t-245.5 37zM1081 421q-10 -45 -18 -104q-113 -24 -212 -24q-85 0 -163.5 25t-137 78t-84.5 124.5
t-26 154.5q0 117 54.5 215t157.5 146.5t227 48.5q100 0 203 -21q1 -52 8 -105q-70 21 -115.5 28t-86.5 7q-95 0 -170.5 -38.5t-116 -114t-40.5 -163.5q0 -82 31 -148.5t102 -106.5t168 -40q92 0 219 38z" />
    <glyph glyph-name="trademark" unicode="&#x2122;" horiz-adv-x="1655" 
d="M695 587l12 100q4 37 14 155l39 523q43 -2 86 -2q38 0 78 2q13 -47 20 -70t24 -74l166 -481l72 165l158 357q8 18 15.5 37.5l24.5 65.5q37 -2 84 -2q43 0 82 2l-8 -316q-2 -126 -2 -182q0 -224 2 -280l-60 1q-25 0 -62 -1l2 36q3 49 5 195l4 181q1 35 2 119l1 102
l-91 -212l-51 -118l-127 -303q-39 1 -59 1q-24 0 -61 -1l-213 629q-4 -37 -13 -171l-18 -245q-8 -112 -9 -213l-58 1q-18 0 -59 -1zM254 587l17 270l15 415q-110 0 -246 -5q4 43 4 97q193 -1 324 -1l290 1l-3 -46q-1 -20 -1 -50q-83 5 -208 5h-36l-23 -573v-113l-65 1z" />
    <glyph glyph-name="acute" unicode="&#xb4;" horiz-adv-x="1024" 
d="M444 1145l92 262q49 -2 101 -2q47 0 102 2q-66 -93 -173 -262q-28 2 -62 2q-33 0 -60 -2z" />
    <glyph glyph-name="dieresis" unicode="&#xa8;" horiz-adv-x="1024" 
d="M610 1212l6 129q48 -1 76 -1t74 1l-4 -129q-37 2 -74 2q-36 0 -78 -2zM317 1212l5 129q49 -1 77 -1t74 1l-4 -129q-37 2 -74 2q-36 0 -78 -2z" />
    <glyph glyph-name="notequal" unicode="&#x2260;" 
d="M600 893l100 287q50 -19 123 -37l-93 -250q124 2 143 2q112 0 216 3q-6 -49 -8 -121q-141 3 -243 3l-149 1l-57 -156q162 2 177 2q103 0 261 2q-6 -51 -8 -120q-164 3 -284 3q-15 0 -184 2l-103 -297q-51 19 -124 37l97 259q-150 -2 -155 -2q-64 0 -200 -2q7 57 8 120
q141 -2 240 -2q14 0 148 -2l56 157q-152 -2 -174 -2q-101 0 -259 -3q6 55 8 121q28 -1 132 -2l209 -2z" />
    <glyph glyph-name="AE" unicode="&#xc6;" horiz-adv-x="1698" 
d="M-111 0l221 425l395 778l31 65l43 97q216 -1 542 -1l398 1h98q-7 -72 -9 -137q-152 7 -349 7l-397 -1l101 -477q120 -3 308 -3q146 0 251 4q-7 -62 -9 -135l-94 4h-68q-59 1 -294 1l-71 -1l106 -502h72q147 0 170 0.5t78.5 2.5t136.5 8q-8 -78 -8 -136q-178 2 -284 2
q-158 0 -321 -2l-119 588h-442l-147 -289t-143 -299l-98 2q-24 0 -98 -2zM429 710h374l-43 222q-11 63 -31 155t-34 163z" />
    <glyph glyph-name="Oslash" unicode="&#xd8;" horiz-adv-x="1641" 
d="M1175 1320l107 161q44 -2 80 -2q37 0 79 2l-144 -214q33 -23 63 -49.5t63.5 -69t57 -86.5t40.5 -96.5t27.5 -118.5t10.5 -140q0 -155 -50.5 -297.5t-149 -239t-242 -144.5t-300.5 -48q-60 0 -120 8.5t-115 27.5l-109 37l-108 -163q-48 2 -78 2q-31 0 -78 -2l144 216
q-132 89 -194 234.5t-62 315.5q0 154 53.5 297.5t151.5 239.5t241 146.5t298 50.5q47 0 92.5 -4.5t76 -11t70.5 -20.5zM1099 1208q-115 49 -247 49q-122 0 -230.5 -38.5t-189 -123.5t-119 -201.5t-38.5 -241.5q0 -60 10 -118.5t28 -107t39 -83.5t40 -57.5t50 -50.5z
M1209 1138l-659 -972q123 -57 274 -57q118 0 224.5 38.5t183 121t112 196t35.5 240.5t-40.5 241.5t-129.5 191.5z" />
    <glyph glyph-name="infinity" unicode="&#x221e;" horiz-adv-x="1370" 
d="M688 615q-64 -98 -149.5 -162.5t-196.5 -64.5q-89 0 -159.5 42t-106 114t-35.5 155q0 144 92 226t212 82q101 0 186.5 -62.5t151.5 -165.5q71 110 155.5 168.5t187.5 58.5q90 0 160.5 -41t106.5 -113t36 -155q0 -88 -36 -158.5t-108.5 -111t-156.5 -40.5q-104 0 -188 60
t-152 168zM746 697q65 -103 128.5 -153t140.5 -50q53 0 98.5 26t69 74t23.5 105t-23.5 102t-70 72t-99.5 27q-32 0 -65 -10t-68 -36t-64.5 -60.5t-69.5 -96.5zM624 696q-60 97 -124.5 150.5t-143.5 53.5q-54 0 -99.5 -26.5t-69 -74.5t-23.5 -104q0 -57 24 -102t70.5 -72
t98.5 -27q32 0 64.5 10t67 35t63.5 58t72 99z" />
    <glyph glyph-name="plusminus" unicode="&#xb1;" 
d="M115 716q5 28 9 120q264 -5 412 -5l10 370q23 -2 64 -2q42 0 64 2q-3 -46 -19 -369h168l253 4q-6 -49 -8 -120q-269 4 -418 4l-10 -369q-23 2 -64 2q-42 0 -64 -2q4 59 19 369h-162zM93 163q5 29 8 121q266 -5 476 -5q204 0 477 5q-6 -42 -8 -121q-272 5 -476 5t-477 -5z
" />
    <glyph glyph-name="lessequal" unicode="&#x2264;" horiz-adv-x="1028" 
d="M957 1223v-149l-714 -288l714 -287v-150l-887 369v136zM957 290v-140h-887v140h887z" />
    <glyph glyph-name="greaterequal" unicode="&#x2265;" horiz-adv-x="1028" 
d="M70 349l1 150l713 287l-714 288v149l887 -369v-136zM70 150v140h887v-140h-887z" />
    <glyph glyph-name="yen" unicode="&#xa5;" 
d="M134 512q7 44 12 107q236 -4 341 -4l-105 187l-257 -4q8 44 12 107q121 -3 188 -3l-267 463q59 -1 94 -1t93 1l98 -186l245 -441l334 522l63 105q59 -1 91 -1t91 1l-309 -463q79 0 209 3q-8 -47 -14 -107q-194 4 -260 4l-122 -187l125 1q36 0 239 3q-9 -46 -14 -107
q-244 5 -367 5l-10 -189q-8 -155 -11 -328q-59 2 -90 2q-32 0 -90 -2l28 382l7 135l-43 -1h-103z" />
    <glyph glyph-name="mu" unicode="&#xb5;" 
d="M157 1013l92 -1q28 0 86 1q-12 -163 -22.5 -375.5t-10.5 -273.5q0 -93 26 -145.5t81 -78.5t119 -26q65 0 123 25q52 22 89.5 62.5t63.5 110.5q20 53 30 140q7 59 12 199q7 181 10 362l92 -1q30 0 84 1q-14 -189 -33 -547q-11 -210 -14 -466q-48 2 -83 2q-40 0 -83 -2
l7 193q-25 -59 -49 -93.5t-63 -62t-94 -42.5t-114 -15q-48 0 -88 9t-68.5 24.5t-47 34.5t-39.5 49v-95l-1 -102l-2 -156q-1 -61 -1 -97l1 -99q-48 2 -84 2q-33 0 -87 -2q22 292 45 751t23 714z" />
    <glyph glyph-name="partialdiff" unicode="&#x2202;" horiz-adv-x="1028" 
d="M177 1248l19 125q88 -12 147 -27q93 -23 174.5 -63t154 -102.5t129.5 -144.5t93.5 -178t51 -190.5t14.5 -175.5q0 -128 -31 -216.5t-94 -157t-145.5 -105t-173.5 -36.5q-119 0 -224 62t-164.5 168t-59.5 231q0 120 57.5 228.5t156.5 166.5t210 58q42 0 83.5 -8.5
t78.5 -24.5t63.5 -37.5t78.5 -84.5l-68 161q-8 18 -32 52q-35 51 -65 84q-28 30 -58 54q-32 26 -84 56q-57 33 -102 52q-43 18 -89 31q-46 12 -121 22zM817 445q0 90 -34.5 166t-106 120t-158.5 44q-63 0 -140 -38t-123 -124t-46 -178q0 -90 42 -169t114 -123.5t150 -44.5
q79 0 153 46t111.5 126t37.5 175z" />
    <glyph glyph-name="summation" unicode="&#x2211;" horiz-adv-x="1370" 
d="M1225 1536v-468h-139l-14 327h-832l512 -843l-511 -924h850l8 328h145v-468h-1174v161l502 903l-502 826v158h1155z" />
    <glyph glyph-name="product" unicode="&#x220f;" horiz-adv-x="1383" 
d="M61 1536h1260v-128h-154v-1792h154v-128h-453v128h158v1792h-670v-1792h156v-128h-451v128h154v1792h-154v128z" />
    <glyph glyph-name="pi" unicode="&#x3c0;" horiz-adv-x="1150" 
d="M194 0v860h-149v120h1059v-120h-147v-860h-146v860h-471v-860h-146z" />
    <glyph glyph-name="integral" unicode="&#x222b;" horiz-adv-x="1028" 
d="M202 -490l32 140q30 -13 48 -16.5t34 -3.5q31 0 55 11t36.5 27t17.5 36t7 54t2 123v1236q0 156 4 198q7 59 25 95.5t51 65.5t75 43q48 17 106 17q25 0 53 -3.5t78 -18.5l-32 -140q-43 21 -83 21q-33 0 -57 -12t-38 -33.5t-18 -58t-4 -128.5v-1253q0 -100 -1 -146
t-10.5 -92.5t-34 -80.5t-62.5 -55.5t-86 -33t-99 -11.5q-22 0 -45 3t-54 16z" />
    <glyph glyph-name="ordfeminine" unicode="&#xaa;" horiz-adv-x="699" 
d="M124 1041q10 48 15 98q132 33 240 33q81 0 136.5 -17.5t82 -52t26.5 -90.5q0 -43 -9.5 -186t-9.5 -280q-37 1 -63 1q-27 0 -65 -1q7 58 10 102t7 128l6 113q-23 -16 -44.5 -25t-89.5 -27q-60 -16 -96 -28t-61.5 -30t-36 -36t-10.5 -40q0 -31 19 -53t47 -30.5t68 -8.5
q30 0 57.5 4t82.5 22q-16 -53 -24 -90q-72 -14 -134 -14q-87 0 -135.5 20t-72.5 60.5t-24 88.5q0 36 16 68.5t50.5 59t89 46t163.5 44.5q85 19 110.5 43t25.5 52q0 34 -32.5 55.5t-104.5 21.5q-47 0 -104.5 -10t-135.5 -41z" />
    <glyph glyph-name="ordmasculine" unicode="&#xba;" horiz-adv-x="771" 
d="M407 1172q95 0 169.5 -36t111.5 -107.5t37 -158.5q0 -96 -43 -178.5t-117.5 -120.5t-172.5 -38q-94 0 -168 37t-112.5 109t-38.5 159q0 100 41.5 178.5t122 117t170.5 38.5zM404 1079q-58 0 -108.5 -28t-74.5 -86t-24 -127q0 -62 21.5 -110.5t67.5 -76t107 -27.5
q64 0 112 28.5t72 86t24 130.5q0 63 -21 112.5t-67.5 73.5t-108.5 24z" />
    <glyph glyph-name="Omega" unicode="&#x2126;" horiz-adv-x="1370" 
d="M60 0v134h374q-61 35 -95 60q-58 44 -113 104.5t-92.5 130.5t-57 149.5t-19.5 165.5q0 181 81.5 327.5t224.5 237t322 90.5q176 0 319.5 -89t226 -237t82.5 -329q0 -86 -19.5 -166t-57 -149.5t-92 -129.5t-111.5 -104q-34 -25 -96 -61h373v-134h-533v124q51 28 89 53.5
t84.5 68.5t88 101.5t68 119t38.5 124t12 130.5q0 155 -61 273t-167 194t-244 76q-193 0 -332.5 -155.5t-139.5 -386.5q0 -188 95 -342.5t285 -255.5v-124h-533z" />
    <glyph glyph-name="ae" unicode="&#xe6;" horiz-adv-x="1710" 
d="M174 854q12 69 18 129q69 20 113 29t112 16.5t127 7.5q67 0 120.5 -9t87.5 -21.5t60.5 -31t44 -44t34.5 -77.5q43 54 74 82.5t73 51.5t94.5 36t108.5 13q109 0 205.5 -46.5t151 -135t54.5 -221.5q0 -45 -8 -86h-725q-3 -51 -3 -81q0 -79 24.5 -152t74 -123.5t115 -73
t137.5 -22.5q115 0 286 54q-13 -63 -24 -142q-149 -29 -275 -29q-97 0 -180 24.5t-146 76.5t-100.5 129.5t-53 157t-15.5 138.5q0 22 2 43.5t11 69.5q-32 -39 -52.5 -55t-58 -31.5t-100 -33.5t-121.5 -39.5t-94.5 -37.5t-58.5 -32.5t-41 -38.5t-27 -47.5t-9 -51.5
q0 -49 29 -88.5t85 -59t121 -19.5q45 0 108.5 12t128.5 37q-16 -58 -29 -121q-67 -16 -133.5 -24.5t-113.5 -8.5q-103 0 -190.5 32t-132.5 96t-45 143q0 44 14.5 84.5t45.5 79t72 65.5q57 37 125 60q50 17 252 74q58 17 103 35.5t69.5 43t34 47.5t9.5 50q0 64 -53.5 103.5
t-172.5 39.5q-58 0 -124 -10t-115.5 -24t-123.5 -43zM928 635h561q0 65 -5 93t-18.5 58.5t-37 58t-54 45.5t-68 27.5t-77.5 9.5q-46 0 -87 -12t-76 -35t-62 -55t-43 -71t-33 -119z" />
    <glyph glyph-name="oslash" unicode="&#xf8;" horiz-adv-x="1204" 
d="M828 992l77 129q36 -2 74 -2q34 0 73 2l-107 -181q33 -25 55 -47.5t43 -54t38.5 -78.5t28.5 -104.5t11 -120.5q0 -158 -64.5 -287.5t-182.5 -199.5t-261 -70q-110 0 -225 41l-79 -133q-53 2 -77 2q-13 0 -77 -2l113 186q-101 77 -143 183t-42 221q0 118 33.5 224.5
t110 182t177.5 114.5t205 39q108 0 219 -44zM762 885q-65 26 -143 26t-145 -25t-118.5 -85t-74.5 -143t-23 -174q0 -177 90 -280zM865 809l-410 -679q64 -25 138 -25q103 0 181.5 45.5t125 146.5t46.5 240q0 74 -16 142.5t-65 129.5z" />
    <glyph glyph-name="questiondown" unicode="&#xbf;" horiz-adv-x="959" 
d="M640 1013q-1 -9 -11 -177q-59 2 -102 2q-47 0 -101 -2q4 51 5.5 97t4.5 80l100 -1zM607 738l-7 -139q-5 -80 -11 -113.5t-16.5 -56.5t-33.5 -55q-34 -44 -121.5 -142t-113.5 -133t-44.5 -73t-18.5 -80q0 -58 35.5 -104.5t106 -67.5t155.5 -21q67 0 138.5 10.5t192.5 42.5
q-21 -96 -27 -150q-188 -30 -350 -30q-133 0 -236 33.5t-155 105t-52 153.5q0 36 9 76t38.5 93.5t76.5 109t103 114.5t80.5 87t37.5 50t20.5 43.5t12.5 54t10 84.5l9 108q36 -1 79 -1t82 1z" />
    <glyph glyph-name="exclamdown" unicode="&#xa1;" horiz-adv-x="552" 
d="M186 1013l105 -1l100 1q-3 -55 -5 -100.5t-4 -79.5l-100 1l-105 -1q4 43 9 180zM202 715q43 -2 84 -2q35 0 72 2l-16 -572q-8 -303 -8 -495q-61 2 -93 2q-40 0 -96 -2q10 125 18 303z" />
    <glyph glyph-name="logicalnot" unicode="&#xac;" horiz-adv-x="1028" 
d="M802 0v423h-732v140h887v-563h-155z" />
    <glyph glyph-name="radical" unicode="&#x221a;" horiz-adv-x="1370" 
d="M1367 1694v-130h-396l-460 -1564h-171l-173 606h-165v130h262l85 -284q11 -35 16 -58l45 -170q3 -12 10 -45q9 40 27 108l77 288l99 326l232 793h512z" />
    <glyph glyph-name="florin" unicode="&#x192;" 
d="M712 1093h56q99 0 213 4q-15 -56 -26 -121q-100 4 -267 4l-144 -783q-20 -106 -35.5 -171.5t-32.5 -109.5t-41.5 -78t-60.5 -58t-88.5 -38.5t-110.5 -14.5q-86 0 -177 27q15 58 22 115q75 -25 134 -25q56 0 97 21t65.5 60.5t39.5 103.5q17 73 40 203l133 747
q-73 0 -134 -3q15 62 24 121q84 -3 133 -3q25 150 48 213.5t67.5 108.5t108 65.5t137.5 20.5q85 0 192 -29q-12 -53 -17 -116q-88 26 -154 26q-51 0 -89 -16.5t-61.5 -48.5t-37 -70.5t-34.5 -154.5z" />
    <glyph glyph-name="approxequal" unicode="&#x2248;" horiz-adv-x="1028" 
d="M110 712l-87 59q15 33 31 59t40.5 59t44 50.5t46.5 32t56.5 22.5t59.5 8q33 0 66 -9t76 -27t105 -48.5t88.5 -41.5t49.5 -15.5t43 -4.5q53 0 94.5 28.5t93.5 114.5l88 -57q-20 -43 -38.5 -73.5t-48 -62t-62 -51.5t-72 -31t-72.5 -11q-19 0 -38 4t-49.5 13.5t-44 15.5
t-125.5 61q-57 28 -95 39.5t-67 11.5q-48 0 -90.5 -31t-92.5 -115zM110 365l-87 58q15 33 30.5 59.5t40.5 59t44.5 50t46.5 32.5t56.5 22.5t59.5 7.5q33 0 66 -8.5t75 -26t113 -52.5t105 -47t70 -12q50 0 91.5 27.5t95.5 116.5l88 -58q-20 -42 -38 -72.5t-48 -62t-62 -51.5
t-71.5 -31t-73.5 -11q-16 0 -34.5 3t-51 13t-45 16l-126.5 62q-57 28 -95 39.5t-67 11.5q-48 0 -91 -31.5t-92 -114.5z" />
    <glyph glyph-name="increment" unicode="&#x2206;" horiz-adv-x="1373" 
d="M62 0l544 1365h159l546 -1365h-1249zM265 134h841l-420 1064z" />
    <glyph glyph-name="guillemotleft" unicode="&#xab;" horiz-adv-x="866" 
d="M429 880l-92 -197q-36 -76 -70 -157q45 -129 69 -190l61 -160q-35 1 -62 1t-60 -1l-24 53l-55 110l-94 187q76 123 201 354q33 -2 61 -2q31 0 65 2zM738 880l-86 -184q-39 -81 -76 -170l41 -115l39 -106l50 -129q-35 1 -63 1q-27 0 -59 -1l-24 53l-149 297
q87 143 200 354q34 -2 62 -2q31 0 65 2z" />
    <glyph glyph-name="guillemotright" unicode="&#xbb;" horiz-adv-x="869" 
d="M139 880q35 -2 64 -2q30 0 62 2q108 -243 166 -354l-207 -350q-34 1 -59 1q-29 0 -63 -1l80 165q24 50 84 185q-29 89 -59 170zM447 880q36 -2 65 -2q30 0 62 2q108 -243 166 -354l-163 -273l-44 -77q-34 1 -60 1q-29 0 -62 -1l83 173q9 17 81 177q-29 89 -60 170z" />
    <glyph glyph-name="ellipsis" unicode="&#x2026;" horiz-adv-x="1376" 
d="M570 0q3 55 4.5 100.5t3.5 84.5l102 -2q23 0 92 2q-5 -62 -6 -95.5t-4 -89.5q-64 2 -92 2q-25 0 -100 -2zM113 0l8 185l102 -2q23 0 92 2q-4 -43 -5 -76l-5 -109q-65 2 -92 2q-25 0 -100 -2zM1027 0l9 185l101 -2q23 0 92 2l-10 -185q-64 2 -91 2q-26 0 -101 -2z" />
    <glyph glyph-name="nbspace" unicode="&#xa0;" horiz-adv-x="512" 
 />
    <glyph glyph-name="Agrave" unicode="&#xc0;" horiz-adv-x="1425" 
d="M-47 0l182 344l464 907l54 114l116 -1q54 0 117 1l173 -490l320 -875l-95 2q-27 0 -107 -2q-27 96 -89.5 278t-105.5 295h-547l-145 -299l-128 -274l-102 2q-25 0 -107 -2zM494 705h450l-186 529zM839 1493q-30 2 -60 2q-37 0 -62 -2q-100 163 -168 262q57 -2 102 -2
q53 0 101 2z" />
    <glyph glyph-name="Atilde" unicode="&#xc3;" horiz-adv-x="1425" 
d="M-47 0l182 344l464 907l54 114l116 -1q54 0 117 1l173 -490l320 -875l-95 2q-27 0 -107 -2q-27 96 -89.5 278t-105.5 295h-547l-145 -299l-128 -274l-102 2q-25 0 -107 -2zM494 705h450l-186 529zM522 1529q0 78 13.5 124t40.5 65t59 19q18 0 38.5 -6.5t43.5 -20.5
t90 -61q25 -17 38.5 -24t27.5 -7q12 0 22.5 4.5t18.5 15.5t11.5 28.5t5.5 55.5q27 -1 45 -1q19 0 46 1q-1 -70 -13 -111.5t-37.5 -68t-67.5 -26.5q-17 0 -35 5.5t-40 19t-70 46.5t-66 41.5t-32 8.5q-11 0 -19.5 -3.5t-15 -12t-10 -20t-5 -27t-2.5 -45.5q-30 2 -44 2t-43 -2z
" />
    <glyph glyph-name="Otilde" unicode="&#xd5;" horiz-adv-x="1649" 
d="M863 1387q148 0 281 -43t234.5 -142t144.5 -222t43 -267q0 -154 -48 -296t-148 -241t-246 -148.5t-307 -49.5q-153 0 -293.5 45t-239.5 138.5t-143 220t-44 268.5q0 156 53 299.5t156.5 242.5t250 147t306.5 48zM852 1254q-120 0 -227 -38.5t-186.5 -123.5t-118 -200
t-38.5 -240q0 -116 38 -222.5t112 -177.5t178 -105.5t217 -34.5q116 0 221.5 37t182 117.5t113.5 194.5t37 239q0 118 -33.5 225.5t-107 183.5t-174.5 110.5t-214 34.5zM618 1529q0 78 13.5 124t40.5 65t59 19q18 0 38.5 -6.5t43.5 -20.5t90 -61q25 -17 38.5 -24t27.5 -7
q12 0 22.5 4.5t18.5 15.5t11.5 28.5t5.5 55.5q27 -1 45 -1q19 0 46 1q-1 -70 -13 -111.5t-37.5 -68t-67.5 -26.5q-17 0 -35 5.5t-40 19t-70 46.5t-66 41.5t-32 8.5q-11 0 -19.5 -3.5t-15 -12t-10 -20t-5 -27t-2.5 -45.5q-30 2 -44 2t-43 -2z" />
    <glyph glyph-name="OE" unicode="&#x152;" horiz-adv-x="2111" 
d="M1971 143q-4 -75 -4 -143q-273 1 -567 1q-155 0 -214 -1t-156 -5l-156 -6q-60 -3 -92 -3q-108 0 -211.5 23.5t-189 74.5t-150.5 133.5t-99.5 199t-34.5 240.5q0 126 35 246.5t99.5 212t158 152t208.5 86t226 25.5q47 0 212.5 -7.5t445.5 -7.5l544 1q-6 -70 -8 -140
q-149 7 -302 7l-318 -1l-71 1l-20 -475q187 -2 267 -2q230 0 357 9q-5 -63 -7 -139q-145 3 -235 3q-36 0 -135 -2l-254 -3l-21 -489l96 -2q309 0 395.5 2t200.5 9zM1102 132l46 1101q-228 15 -304 15q-115 0 -213 -29t-178 -105.5t-125.5 -201t-45.5 -256.5
q0 -118 36.5 -224.5t112 -181.5t171 -104t210.5 -29q48 0 96 3z" />
    <glyph glyph-name="oe" unicode="&#x153;" horiz-adv-x="1934" 
d="M1779 155q-12 -61 -22 -137q-176 -40 -304 -40q-63 0 -120 12t-107 34t-90 56.5t-64 71.5t-52 100q-39 -76 -68.5 -114.5t-65.5 -67.5t-82.5 -49t-105 -31.5t-121.5 -11.5q-110 0 -204 36t-162 107t-98 165t-30 198q0 154 64 286t187 199t273 67q53 0 105.5 -9.5
t99.5 -27.5t80.5 -40t59 -48t44.5 -56.5t43 -85.5q30 60 54.5 95.5t61.5 68.5t84.5 55.5t103 35t115.5 12.5q112 0 207.5 -42.5t153 -139t57.5 -229.5q0 -37 -5 -72l-754 -1q-3 -51 -3 -88q0 -95 42 -183t121.5 -138.5t196.5 -50.5q57 0 119 11.5t186 51.5zM1126 633l587 2
q0 114 -36 174.5t-97 88t-131 27.5q-69 0 -128 -23.5t-97.5 -61.5t-58.5 -81t-39 -126zM620 909q-107 0 -194 -51t-129.5 -148t-42.5 -228q0 -79 18.5 -148t66 -123t113 -81.5t143.5 -27.5q104 0 188 50t126.5 160t42.5 228q0 117 -44 205t-119.5 126t-168.5 38z" />
    <glyph glyph-name="endash" unicode="&#x2013;" 
d="M85 461q8 74 8 133q285 -5 490 -5q200 0 491 5q-8 -73 -8 -133q-228 5 -490 5q-258 0 -491 -5z" />
    <glyph glyph-name="emdash" unicode="&#x2014;" horiz-adv-x="1486" 
d="M-3 461q6 80 7 133q400 -5 742 -5q297 0 743 5q-6 -85 -7 -133q-330 5 -742 5q-408 0 -743 -5z" />
    <glyph glyph-name="quotedblleft" unicode="&#x201c;" horiz-adv-x="730" 
d="M404 1030l65 107.5t55 90.5l79 137l49 -1q17 0 48 1q-74 -210 -111 -335q-57 2 -88 2q-37 0 -97 -2zM96 1030l65 107.5l57 93.5l77 134l49 -1q17 0 48 1q-77 -219 -111 -335q-57 2 -88 2q-38 0 -97 -2z" />
    <glyph glyph-name="quotedblright" unicode="&#x201d;" horiz-adv-x="739" 
d="M396 1365l-65 -107l-57 -94l-77 -134q-36 2 -49 2q-17 0 -48 -2q72 205 111 335q57 -1 88 -1q38 0 97 1zM704 1365l-65 -107l-57 -94l-77 -134q-36 2 -49 2q-17 0 -48 -2q77 219 111 335q57 -1 88 -1q38 0 97 1z" />
    <glyph glyph-name="quoteleft" unicode="&#x2018;" horiz-adv-x="421" 
d="M96 1030l65 107.5l57 93.5l77 134l49 -1q17 0 48 1q-77 -219 -111 -335q-57 2 -88 2q-38 0 -97 -2z" />
    <glyph glyph-name="quoteright" unicode="&#x2019;" horiz-adv-x="431" 
d="M396 1365l-65 -107l-57 -94l-77 -134q-36 2 -49 2q-17 0 -48 -2q72 205 111 335q57 -1 88 -1q38 0 97 1z" />
    <glyph glyph-name="divide" unicode="&#xf7;" 
d="M527 952l5 100l2 48q38 -2 77 -2t77 2q-2 -18 -8 -148q-38 1 -77 1q-38 0 -76 -1zM120 763q272 -4 476 -4t477 4q-6 -51 -8 -120q-271 5 -476 5q-204 0 -477 -5q7 57 8 120zM498 307l3 39q2 33 3 60t2 49q37 -2 76 -2t77 2l-2 -33q-2 -34 -3 -63.5t-3 -51.5q-38 1 -76 1
q-39 0 -77 -1z" />
    <glyph glyph-name="lozenge" unicode="&#x25ca;" horiz-adv-x="1370" 
d="M685 1419l531 -736l-531 -736l-532 736zM685 1238l-404 -555l404 -554l403 554z" />
    <glyph glyph-name="ydieresis" unicode="&#xff;" horiz-adv-x="1004" 
d="M-53 -463q-7 85 -17 144q50 -24 93 -32.5t73 -8.5q39 0 76 14t60 37t48.5 63.5t54 95.5t54.5 123l-213 607l-156 434q73 -2 97 -2q28 0 91 2q16 -70 27 -107t48 -151l151 -459q25 -78 50 -168l113 276l209 489q9 22 17.5 45.5l26.5 74.5q64 -2 89 -2q21 0 93 2l-189 -415
l-371 -825q-39 -83 -71 -126q-26 -34 -56 -59q-24 -21 -54 -36q-37 -18 -80 -28q-47 -10 -96 -10q-77 0 -168 22zM600 1212l6 129q48 -1 76 -1t74 1l-4 -129q-37 2 -74 2q-36 0 -78 -2zM307 1212l5 129q49 -1 77 -1t74 1l-4 -129q-37 2 -74 2q-36 0 -78 -2z" />
    <glyph glyph-name="Ydieresis" unicode="&#x178;" horiz-adv-x="1089" 
d="M402 0q26 296 40 598l-439 767l107 -1q32 0 101 1q47 -100 146 -275.5l187 -344.5l349 544l45 76q66 -1 106 -1l100 1l-399 -590l-125 -189l-20 -456l-2 -130q-71 2 -98 2t-98 -2zM659 1562l6 129q48 -1 76 -1t74 1l-4 -129q-37 2 -74 2q-36 0 -78 -2zM366 1562l5 129
q49 -1 77 -1t74 1l-4 -129q-37 2 -74 2q-36 0 -78 -2z" />
    <glyph glyph-name="fraction" unicode="&#x2215;" horiz-adv-x="209" 
d="M-347 0l576 968l231 397q32 -1 54 -1q25 0 57 1l-407 -681l-310 -529l-87 -155q-31 2 -51 2q-23 0 -63 -2z" />
    <glyph glyph-name="Euro" unicode="&#x20ac;" horiz-adv-x="1202" 
d="M1163 1204q-183 58 -313 58q-202 0 -336 -102.5t-182 -295.5h739l-24 -127h-736q-2 -22 -2 -78v-30h717l-25 -127h-679q73 -398 473 -398q153 0 350 62l-25 -148q-203 -41 -332 -41q-276 0 -443.5 134t-205.5 391h-116l26 127h80v16q0 33 4 92h-110l26 127h101
q52 258 229 391.5t463 133.5q135 0 311 -37z" />
    <glyph glyph-name="quilsinglleft" unicode="&#x2039;" horiz-adv-x="558" 
d="M429 880l-92 -197q-36 -76 -70 -157q45 -129 69 -190l61 -160q-35 1 -62 1t-60 -1l-24 53l-55 110l-94 187q76 123 201 354q33 -2 61 -2q31 0 65 2z" />
    <glyph glyph-name="quilsinglright" unicode="&#x203a;" horiz-adv-x="560" 
d="M139 880q35 -2 64 -2q30 0 62 2q108 -243 166 -354l-207 -350q-34 1 -59 1q-29 0 -63 -1l80 165q24 50 84 185q-29 89 -59 170z" />
    <glyph glyph-name="fi" unicode="&#xf001;" horiz-adv-x="1035" 
d="M140 0l11 184l27 704h-125q5 49 8 123h129q3 127 7 165.5t12.5 71t28.5 61t59 52.5t87.5 33.5t99.5 9.5q92 0 180 -25q2 -66 10 -127q-82 33 -152 33q-39 0 -70.5 -10.5t-51 -27t-32 -43t-17 -64t-4.5 -86.5l-1 -43h278q-5 -43 -9 -123h-268l-18 -511l-9 -377
q-62 2 -91 2q-28 0 -89 -2zM736 1231q3 94 3 142q55 -2 98 -2q53 0 95 2l-5 -142q-55 1 -94 1q-38 0 -97 -1zM692 0l17 252l24 612l3 149l91 -1l91 1q-13 -168 -21.5 -339t-13.5 -358.5t-5 -315.5q-63 2 -91 2q-24 0 -95 -2z" />
    <glyph glyph-name="fl" unicode="&#xf002;" horiz-adv-x="1037" 
d="M140 0l11 184l27 704h-125q5 49 8 123h129q3 127 7 165.5t12.5 71t28.5 61t59 52.5t87.5 33.5t99.5 9.5q92 0 180 -25q2 -66 10 -127q-82 33 -152 33q-39 0 -70.5 -10.5t-51 -27t-32 -43t-17 -64t-4.5 -86.5l-1 -43h278q-5 -43 -9 -123h-268l-18 -511l-9 -377
q-62 2 -91 2q-28 0 -89 -2zM692 0q20 308 39 730q13 306 19 635l92 -1q30 0 90 1l-31 -577l-27 -788q-58 2 -87 2q-25 0 -95 -2z" />
    <glyph glyph-name="daggerdbl" unicode="&#x2021;" horiz-adv-x="1101" 
d="M654 900l175 1q20 0 206 4q-8 -70 -8 -135q-220 5 -379 5l-25 -617l181 1q20 0 205 4q-5 -53 -7 -135l-205 4l-179 1l-17 -484q-40 2 -82 2q-44 0 -83 -2l20 484l-186 -1l-194 -4q6 52 7 135l204 -4h175l23 616l-183 -1q-29 -1 -201 -4q7 76 7 135l204 -4l178 -1l17 465
q36 -1 83 -1q49 0 84 1q-5 -82 -20 -465z" />
    <glyph glyph-name="periodcentered" unicode="&#x2219;" horiz-adv-x="221" 
d="M10 598q3 49 4 84l5 115l109 -1l99 1q-4 -48 -6 -105l-4 -94l-99 2q-9 0 -108 -2z" />
    <glyph glyph-name="quotesinglbase" unicode="&#x201a;" horiz-adv-x="431" 
d="M316 147l-65 -108l-57 -94l-77 -134q-36 2 -49 2q-17 0 -48 -2q72 206 111 336q63 -2 88 -2q31 0 97 2z" />
    <glyph glyph-name="quotedblbase" unicode="&#x201e;" horiz-adv-x="723" 
d="M624 147q-28 -49 -64 -106l-52 -85l-83 -145q-36 2 -49 2q-17 0 -48 -2q77 220 111 336q63 -2 88 -2q31 0 97 2zM316 147l-65 -108l-57 -94l-77 -134q-36 2 -49 2q-17 0 -48 -2q72 206 111 336q63 -2 88 -2q31 0 97 2z" />
    <glyph glyph-name="perthousand" unicode="&#x2030;" horiz-adv-x="2373" 
d="M383 1380q94 0 157 -48t95 -138t32 -211q0 -140 -40 -259.5t-111 -171t-168 -51.5q-93 0 -158.5 47t-97 136.5t-31.5 199.5q0 145 40.5 268.5t115 175.5t166.5 52zM380 1285q-59 0 -106 -46.5t-71 -140.5t-24 -217q0 -95 20 -156.5t59.5 -95.5t91.5 -34q96 0 146.5 110
t50.5 287q0 103 -21 164.5t-58.5 95t-87.5 33.5zM357 0l521 864l192 322l103 179q30 -1 61 -1t60 1l-249 -409l-468 -786l-96 -170q-29 2 -59 2q-29 0 -65 -2zM1305 864q138 0 210 -104.5t72 -286.5q0 -95 -19 -188.5t-59 -164.5t-102 -102.5t-139 -31.5q-94 0 -157.5 45
t-96 132.5t-32.5 205.5q0 145 40.5 268t115 175t167.5 52zM1301 769q-61 0 -107.5 -48t-69.5 -140.5t-23 -214.5q0 -99 20 -159.5t59.5 -94t90.5 -33.5q96 0 146 111t50 287q0 100 -20 162t-57.5 96t-88.5 34zM2038 864q139 0 211 -104.5t72 -286.5q0 -95 -19.5 -188.5
t-59.5 -164.5t-102 -102.5t-139 -31.5q-94 0 -157.5 45t-96 132.5t-32.5 205.5q0 95 18.5 188t58.5 165t105.5 107t140.5 35zM2034 769q-61 0 -107.5 -47.5t-69.5 -141t-23 -214.5q0 -99 20 -160t59.5 -94t90.5 -33q97 0 147 112t50 285q0 147 -46 220t-121 73z" />
    <glyph glyph-name="Acircumflex" unicode="&#xc2;" horiz-adv-x="1425" 
d="M-47 0l182 344l464 907l54 114l116 -1q54 0 117 1l173 -490l320 -875l-95 2q-27 0 -107 -2q-27 96 -89.5 278t-105.5 295h-547l-145 -299l-128 -274l-102 2q-25 0 -107 -2zM494 705h450l-186 529zM545 1509q81 144 126 233l111 -2q8 0 106 2q44 -96 116 -233q-32 1 -56 1
q-20 0 -54 -1l-114 160l-125 -160q-24 1 -53 1q-34 0 -57 -1z" />
    <glyph glyph-name="Ecircumflex" unicode="&#xca;" horiz-adv-x="1158" 
d="M134 0l25 376l28 703l3 153q1 58 1 133q226 -1 463 -1l319 1h102q-7 -69 -9 -139l-89 5q-33 2 -113.5 3t-159.5 1q-236 0 -329 -3l-18 -469q154 -3 276 -3q133 0 349 4q-7 -70 -9 -138l-344 3q-101 0 -281 -4l-18 -494l104 -1q283 0 375.5 2t216.5 9q-7 -74 -9 -141
q-241 2 -407 2zM399 1509q81 144 126 233l111 -2q8 0 106 2q44 -96 116 -233q-32 1 -56 1q-20 0 -54 -1l-114 160l-125 -160q-24 1 -53 1q-34 0 -57 -1z" />
    <glyph glyph-name="Aacute" unicode="&#xc1;" horiz-adv-x="1425" 
d="M-47 0l182 344l464 907l54 114l116 -1q54 0 117 1l173 -490l320 -875l-95 2q-27 0 -107 -2q-27 96 -89.5 278t-105.5 295h-547l-145 -299l-128 -274l-102 2q-25 0 -107 -2zM494 705h450l-186 529zM701 1493l92 262q49 -2 101 -2q47 0 102 2q-66 -93 -173 -262
q-28 2 -62 2q-33 0 -60 -2z" />
    <glyph glyph-name="Edieresis" unicode="&#xcb;" horiz-adv-x="1158" 
d="M134 0l25 376l28 703l3 153q1 58 1 133q226 -1 463 -1l319 1h102q-7 -69 -9 -139l-89 5q-33 2 -113.5 3t-159.5 1q-236 0 -329 -3l-18 -469q154 -3 276 -3q133 0 349 4q-7 -70 -9 -138l-344 3q-101 0 -281 -4l-18 -494l104 -1q283 0 375.5 2t216.5 9q-7 -74 -9 -141
q-241 2 -407 2zM702 1562l6 129q48 -1 76 -1t74 1l-4 -129q-37 2 -74 2q-36 0 -78 -2zM409 1562l5 129q49 -1 77 -1t74 1l-4 -129q-37 2 -74 2q-36 0 -78 -2z" />
    <glyph glyph-name="Egrave" unicode="&#xc8;" horiz-adv-x="1158" 
d="M134 0l25 376l28 703l3 153q1 58 1 133q226 -1 463 -1l319 1h102q-7 -69 -9 -139l-89 5q-33 2 -113.5 3t-159.5 1q-236 0 -329 -3l-18 -469q154 -3 276 -3q133 0 349 4q-7 -70 -9 -138l-344 3q-101 0 -281 -4l-18 -494l104 -1q283 0 375.5 2t216.5 9q-7 -74 -9 -141
q-241 2 -407 2zM693 1493q-30 2 -60 2q-37 0 -62 -2q-100 163 -168 262q57 -2 102 -2q53 0 101 2z" />
    <glyph glyph-name="Iacute" unicode="&#xcd;" horiz-adv-x="510" 
d="M135 0l15 230l21 479l14 472q1 41 1 82l-1 102l103 -1l97 1q-18 -250 -27 -522q-16 -436 -23 -843l-94 2q-18 0 -106 -2zM225 1493l92 262q49 -2 101 -2q47 0 102 2q-66 -93 -173 -262q-28 2 -62 2q-33 0 -60 -2z" />
    <glyph glyph-name="Icircumflex" unicode="&#xce;" horiz-adv-x="510" 
d="M143 0l15 230l21 479l14 472q1 41 1 82l-1 102l103 -1l97 1q-18 -250 -27 -522q-16 -436 -23 -843l-94 2q-18 0 -106 -2zM75 1509q81 144 126 233l111 -2q8 0 106 2q44 -96 116 -233q-32 1 -56 1q-20 0 -54 -1l-114 160l-125 -160q-24 1 -53 1q-34 0 -57 -1z" />
    <glyph glyph-name="Idieresis" unicode="&#xcf;" horiz-adv-x="510" 
d="M159 0l15 230l21 479l14 472q1 41 1 82l-1 102l103 -1l97 1q-18 -250 -27 -522q-16 -436 -23 -843l-94 2q-18 0 -106 -2zM393 1562l6 129q48 -1 76 -1t74 1l-4 -129q-37 2 -74 2q-36 0 -78 -2zM100 1562l5 129q49 -1 77 -1t74 1l-4 -129q-37 2 -74 2q-36 0 -78 -2z" />
    <glyph glyph-name="Igrave" unicode="&#xcc;" horiz-adv-x="510" 
d="M116 0l15 230l21 479l14 472q1 41 1 82l-1 102l103 -1l97 1q-18 -250 -27 -522q-16 -436 -23 -843l-94 2q-18 0 -106 -2zM353 1493q-30 2 -60 2q-37 0 -62 -2q-100 163 -168 262q57 -2 102 -2q53 0 101 2z" />
    <glyph glyph-name="Oacute" unicode="&#xd3;" horiz-adv-x="1649" 
d="M863 1387q148 0 281 -43t234.5 -142t144.5 -222t43 -267q0 -154 -48 -296t-148 -241t-246 -148.5t-307 -49.5q-153 0 -293.5 45t-239.5 138.5t-143 220t-44 268.5q0 156 53 299.5t156.5 242.5t250 147t306.5 48zM852 1254q-120 0 -227 -38.5t-186.5 -123.5t-118 -200
t-38.5 -240q0 -116 38 -222.5t112 -177.5t178 -105.5t217 -34.5q116 0 221.5 37t182 117.5t113.5 194.5t37 239q0 118 -33.5 225.5t-107 183.5t-174.5 110.5t-214 34.5zM793 1493l92 262q49 -2 101 -2q47 0 102 2q-66 -93 -173 -262q-28 2 -62 2q-33 0 -60 -2z" />
    <glyph glyph-name="Ocircumflex" unicode="&#xd4;" horiz-adv-x="1649" 
d="M863 1387q148 0 281 -43t234.5 -142t144.5 -222t43 -267q0 -154 -48 -296t-148 -241t-246 -148.5t-307 -49.5q-153 0 -293.5 45t-239.5 138.5t-143 220t-44 268.5q0 156 53 299.5t156.5 242.5t250 147t306.5 48zM852 1254q-120 0 -227 -38.5t-186.5 -123.5t-118 -200
t-38.5 -240q0 -116 38 -222.5t112 -177.5t178 -105.5t217 -34.5q116 0 221.5 37t182 117.5t113.5 194.5t37 239q0 118 -33.5 225.5t-107 183.5t-174.5 110.5t-214 34.5zM637 1509q81 144 126 233l111 -2q8 0 106 2q44 -96 116 -233q-32 1 -56 1q-20 0 -54 -1l-114 160
l-125 -160q-24 1 -53 1q-34 0 -57 -1z" />
    <glyph glyph-name="Ograve" unicode="&#xd2;" horiz-adv-x="1649" 
d="M863 1387q148 0 281 -43t234.5 -142t144.5 -222t43 -267q0 -154 -48 -296t-148 -241t-246 -148.5t-307 -49.5q-153 0 -293.5 45t-239.5 138.5t-143 220t-44 268.5q0 156 53 299.5t156.5 242.5t250 147t306.5 48zM852 1254q-120 0 -227 -38.5t-186.5 -123.5t-118 -200
t-38.5 -240q0 -116 38 -222.5t112 -177.5t178 -105.5t217 -34.5q116 0 221.5 37t182 117.5t113.5 194.5t37 239q0 118 -33.5 225.5t-107 183.5t-174.5 110.5t-214 34.5zM931 1493q-30 2 -60 2q-37 0 -62 -2q-100 163 -168 262q57 -2 102 -2q53 0 101 2z" />
    <glyph glyph-name="Uacute" unicode="&#xda;" horiz-adv-x="1487" 
d="M184 1365l99 -1l97 1l-45 -763l-3 -93v-19q0 -139 41 -215.5t130.5 -118.5t226.5 -42q92 0 170 24q65 21 110.5 56t75.5 86q28 49 40 111q14 78 25 272l18 322q8 178 11 380l103 -1l93 1l-29 -471l-18 -390q-9 -136 -29 -211q-15 -53 -44 -100q-26 -42 -64 -75
q-45 -40 -109 -71q-68 -32 -144 -48q-109 -21 -226 -21q-114 0 -213 23q-86 20 -158 61t-115 93q-36 42 -57 106q-24 72 -24 159q0 93 7.5 213t19 362t11.5 370zM717 1493l92 262q49 -2 101 -2q47 0 102 2q-66 -93 -173 -262q-28 2 -62 2q-33 0 -60 -2z" />
    <glyph glyph-name="Ucircumflex" unicode="&#xdb;" horiz-adv-x="1487" 
d="M184 1365l99 -1l97 1l-45 -763l-3 -93v-19q0 -139 41 -215.5t130.5 -118.5t226.5 -42q92 0 170 24q65 21 110.5 56t75.5 86q28 49 40 111q14 78 25 272l18 322q8 178 11 380l103 -1l93 1l-29 -471l-18 -390q-9 -136 -29 -211q-15 -53 -44 -100q-26 -42 -64 -75
q-45 -40 -109 -71q-68 -32 -144 -48q-109 -21 -226 -21q-114 0 -213 23q-86 20 -158 61t-115 93q-36 42 -57 106q-24 72 -24 159q0 93 7.5 213t19 362t11.5 370zM562 1509q81 144 126 233l111 -2q8 0 106 2q44 -96 116 -233q-32 1 -56 1q-20 0 -54 -1l-114 160l-125 -160
q-24 1 -53 1q-34 0 -57 -1z" />
    <glyph glyph-name="Ugrave" unicode="&#xd9;" horiz-adv-x="1487" 
d="M184 1365l99 -1l97 1l-45 -763l-3 -93v-19q0 -139 41 -215.5t130.5 -118.5t226.5 -42q92 0 170 24q65 21 110.5 56t75.5 86q28 49 40 111q14 78 25 272l18 322q8 178 11 380l103 -1l93 1l-29 -471l-18 -390q-9 -136 -29 -211q-15 -53 -44 -100q-26 -42 -64 -75
q-45 -40 -109 -71q-68 -32 -144 -48q-109 -21 -226 -21q-114 0 -213 23q-86 20 -158 61t-115 93q-36 42 -57 106q-24 72 -24 159q0 93 7.5 213t19 362t11.5 370zM856 1493q-30 2 -60 2q-37 0 -62 -2q-100 163 -168 262q57 -2 102 -2q53 0 101 2z" />
    <glyph glyph-name="dotlessi" unicode="&#x131;" horiz-adv-x="461" 
d="M118 0l17 252l19 430l8 331l92 -1l90 1q-11 -156 -20 -326.5t-14.5 -372.5t-5.5 -314q-63 2 -90 2q-25 0 -96 -2z" />
    <glyph glyph-name="circumflex" unicode="&#x2c6;" horiz-adv-x="1024" 
d="M314 1160q81 144 126 233l111 -2q8 0 106 2q44 -96 116 -233q-32 1 -56 1q-20 0 -54 -1l-114 160l-125 -160q-24 1 -53 1q-34 0 -57 -1z" />
    <glyph glyph-name="tilde" unicode="&#x2dc;" horiz-adv-x="1024" 
d="M293 1174q0 78 13.5 124t40.5 65t59 19q18 0 38.5 -6.5t43.5 -20.5t90 -61q25 -17 38.5 -24t27.5 -7q12 0 22.5 4.5t18.5 15.5t11.5 28.5t5.5 55.5q27 -1 45 -1q19 0 46 1q-1 -70 -13 -111.5t-37.5 -68t-67.5 -26.5q-17 0 -35 5.5t-40 19t-70 46.5t-66 41.5t-32 8.5
q-11 0 -19.5 -3.5t-15 -12t-10 -20t-5 -27t-2.5 -45.5q-30 2 -44 2t-43 -2z" />
    <glyph glyph-name="macron" unicode="&#x2c9;" horiz-adv-x="1024" 
d="M286 1220q5 58 5 96q81 -4 259 -4q175 0 252 4q-2 -29 -3.5 -46.5t-2.5 -49.5l-253 2z" />
    <glyph glyph-name="breve" unicode="&#x2d8;" horiz-adv-x="1024" 
d="M316 1380q26 -2 41 -2q16 0 41 2q10 -36 21 -54t28.5 -31t44 -21t57.5 -8t57.5 8t44 21t29 31.5t19.5 53.5q26 -2 41 -2q16 0 42 2q-2 -68 -35 -117.5t-84 -70t-114 -20.5t-114.5 21t-84.5 70.5t-34 116.5z" />
    <glyph glyph-name="dotaccent" unicode="&#x2d9;" horiz-adv-x="1024" 
d="M459 1209l6 136q56 -2 80 -2t78 2l-5 -136q-43 2 -77 2q-31 0 -82 -2z" />
    <glyph glyph-name="ring" unicode="&#x2da;" horiz-adv-x="1024" 
d="M735 1322q0 -49 -25 -92t-68 -67.5t-92 -24.5t-92 24.5t-67.5 67.5t-24.5 92t24.5 92t67.5 68t92 25t92 -25t68 -68t25 -92zM653 1321q0 42 -30 72t-73 30q-42 0 -72.5 -30t-30.5 -72t30.5 -72.5t72.5 -30.5q43 0 73 30.5t30 72.5z" />
    <glyph glyph-name="cedilla" unicode="&#xb8;" horiz-adv-x="1024" 
d="M673 -96l-57 -112l-68 -136q-64 2 -105 2q-38 0 -108 -2l207 250q27 -4 71 -4q34 0 60 2z" />
    <glyph glyph-name="hungarumlaut" unicode="&#x2dd;" horiz-adv-x="1024" 
d="M597 1152l86 251q55 -1 90 -1q37 0 91 1q-60 -85 -162 -251q-20 2 -54 2q-28 0 -51 -2zM337 1152l60 175l26 76q56 -1 90 -1q38 0 91 1q-70 -101 -162 -251q-20 2 -54 2q-28 0 -51 -2z" />
    <glyph glyph-name="ogonek" unicode="&#x2db;" horiz-adv-x="1024" 
d="M692 8h100q-48 -38 -65.5 -69.5t-17.5 -60.5q0 -32 22.5 -56t66.5 -24q48 0 94 14q-9 -30 -11 -40t-7 -48q-57 -15 -107 -15q-78 0 -120.5 43t-42.5 103q0 36 18 72t70 81z" />
    <glyph glyph-name="caron" unicode="&#x2c7;" horiz-adv-x="1024" 
d="M769 1393q-81 -144 -126 -233q-60 1 -111 1q-37 0 -105 -1l-117 233q32 -2 56 -2q21 0 55 2l113 -161l125 161q24 -2 54 -2q33 0 56 2z" />
    <glyph glyph-name="Lslash" unicode="&#x141;" horiz-adv-x="1008" 
d="M698 1037q-5 -76 -5 -165q-61 -40 -343 -258q-6 -100 -18 -481l189 -1q213 0 299.5 1.5t167.5 6.5q-8 -83 -10 -140q-228 2 -401 2l-447 -2l19 252l13 258q-42 -31 -88.5 -69.5l-69.5 -56.5q5 56 6 164q13 9 161 119l8 226q5 119 7 239l4 233q69 -1 105 -1l93 1l-30 -599
z" />
    <glyph glyph-name="lslash" unicode="&#x142;" horiz-adv-x="492" 
d="M17 456q8 94 8 168l144 106l17 473l3 162l92 -1q30 0 90 1q-14 -200 -28 -537l152 123q-4 -54 -5.5 -84.5t-1.5 -83.5l-153 -113l-22 -670q-59 2 -88 2q-11 0 -95 -2q12 166 30 571z" />
    <glyph glyph-name="Scaron" unicode="&#x160;" horiz-adv-x="974" 
d="M79 36q-4 95 -13 165q106 -50 190.5 -70.5t162.5 -20.5q75 0 139.5 25.5t97 72t32.5 106.5q0 35 -11 65.5t-35.5 62t-85 85l-171.5 147.5l-74 63q-42 36 -76 71.5t-57 68t-35.5 59t-19.5 59t-7 66.5q0 86 47 161t141.5 120t249.5 45q111 0 273 -30q2 -64 14 -157
q-153 54 -278 54q-86 0 -144 -28.5t-88 -73t-30 -91.5q0 -28 8 -54.5t24 -50.5q23 -35 57 -70.5t94 -86.5l114.5 -94t145 -127t72.5 -83.5t42 -83t15 -96.5q0 -80 -34.5 -147.5t-99 -110.5t-143.5 -61t-165 -18q-69 0 -142.5 10.5t-209.5 47.5zM788 1742q-81 -144 -126 -233
q-60 1 -111 1q-37 0 -105 -1l-117 233q32 -2 56 -2q21 0 55 2l113 -161l125 161q24 -2 54 -2q33 0 56 2z" />
    <glyph glyph-name="scaron" unicode="&#x161;" horiz-adv-x="813" 
d="M66 19l-6 73q0 12 -8 76q154 -67 284 -67q68 0 115 18t70.5 53.5t23.5 73.5q0 21 -6.5 42t-19.5 40.5t-38.5 43t-106 88.5t-122 101.5t-71 75t-43.5 77.5t-14 79q0 64 40.5 124t117 89.5t179.5 29.5q115 0 253 -27q4 -78 10 -143q-112 46 -221 46q-59 0 -109.5 -15.5
t-74 -46.5t-23.5 -68q0 -24 8 -46t28.5 -47.5t49.5 -50.5t115.5 -94t118.5 -102t55 -68t33.5 -69.5t10.5 -70.5q0 -70 -41.5 -130t-123.5 -93t-184 -33q-43 0 -101 5.5t-98.5 13t-100.5 22.5zM695 1393q-81 -144 -126 -233q-60 1 -111 1q-37 0 -105 -1l-117 233q32 -2 56 -2
q21 0 55 2l113 -161l125 161q24 -2 54 -2q33 0 56 2z" />
    <glyph glyph-name="Zcaron" unicode="&#x17d;" horiz-adv-x="1178" 
d="M50 0q7 97 7 155l45 55q1 1 94 121l545 699l156 205l-65 2h-312q-76 0 -169 -2.5t-214 -9.5q5 52 5 109q0 12 -1 31q206 -1 509 -1h192l274 1q-5 -62 -7 -154l-64 -77l-110 -142l-141 -186l-245 -318l-279 -356q34 -1 421 -1q219 0 366 10q-6 -80 -7 -141q-220 2 -476 2
l-345 -1zM866 1742q-81 -144 -126 -233q-60 1 -111 1q-37 0 -105 -1l-117 233q32 -2 56 -2q21 0 55 2l113 -161l125 161q24 -2 54 -2q33 0 56 2z" />
    <glyph glyph-name="zcaron" unicode="&#x17e;" horiz-adv-x="909" 
d="M43 0q4 63 5 150l52 61q16 18 30 36l520 645q-92 1 -194 1q-161 0 -344 -11q5 67 5 131q165 -1 374 -1q189 0 348 1q-3 -38 -4 -81l-3 -75l-73 -88l-525 -645q97 -4 189 -4q241 0 377 10q-7 -54 -9 -130q-164 2 -359 2q-241 0 -389 -2zM711 1393q-81 -144 -126 -233
q-60 1 -111 1q-37 0 -105 -1l-117 233q32 -2 56 -2q21 0 55 2l113 -161l125 161q24 -2 54 -2q33 0 56 2z" />
    <glyph glyph-name="brokenbar" unicode="&#xa6;" horiz-adv-x="1028" 
d="M435 1365h159v-683h-159v683zM435 314h159v-655h-159v655z" />
    <glyph glyph-name="Eth" unicode="&#xd0;" horiz-adv-x="1510" 
d="M31 637q8 68 9 120l137 -3l15 484q1 29 1 127q126 -2 215 -2q65 0 163.5 2t171.5 2q170 0 284 -26q85 -19 156.5 -66.5t128 -125t83.5 -170.5q32 -113 32 -235q0 -167 -59 -320t-175 -256t-260.5 -135.5t-323.5 -32.5l-279 2q-27 0 -196 -2q28 355 38 640q-49 0 -141 -3z
M352 753h86q126 0 272 4q-6 -53 -8 -120q-133 4 -355 4l-21 -507q133 -3 232 -3q89 0 179.5 9t162 32t141.5 83t113.5 135.5t65.5 168.5t22 187q0 108 -28 201t-95.5 166.5t-160 98t-243.5 24.5q-188 0 -343 -3z" />
    <glyph glyph-name="eth" unicode="&#xf0;" horiz-adv-x="1206" 
d="M432 1423q12 9 52 32t59 39q14 -19 39 -50l39 -50q14 -18 26 -32l37 27q12 9 40.5 32l44.5 35q19 -31 28.5 -49t24.5 -36q-26 -16 -62 -44t-60 -43l84 -115l65 -84l94 -115.5t87.5 -113.5t48.5 -85.5t31.5 -103t12.5 -132.5q0 -118 -39 -227t-109 -184.5t-170.5 -110.5
t-215.5 -35q-105 0 -199 31.5t-164 98.5t-106.5 166t-36.5 204q0 112 33 217t101.5 181.5t177.5 118t229 41.5q78 0 136 -23q-55 70 -102 123t-70 82q-37 -27 -69 -53t-50 -39l-27.5 48t-24.5 37q19 12 43 30.5t77 55.5q-14 17 -25.5 32.5t-18 22.5t-61.5 71zM613 909
q-102 0 -187.5 -51t-126.5 -153.5t-41 -223.5q0 -106 34 -190.5t112 -136.5t188 -52q75 0 142 25.5t117 84.5t74 144.5t24 179.5q0 88 -24 165t-73.5 123.5t-112 65.5t-126.5 19z" />
    <glyph glyph-name="Yacute" unicode="&#xdd;" horiz-adv-x="1089" 
d="M402 0q26 296 40 598l-439 767l107 -1q32 0 101 1q47 -100 146 -275.5l187 -344.5l349 544l45 76q66 -1 106 -1l100 1l-399 -590l-125 -189l-20 -456l-2 -130q-71 2 -98 2t-98 -2zM513 1493l92 262q49 -2 101 -2q47 0 102 2q-66 -93 -173 -262q-28 2 -62 2q-33 0 -60 -2z
" />
    <glyph glyph-name="yacute" unicode="&#xfd;" horiz-adv-x="1004" 
d="M-53 -463q-7 85 -17 144q50 -24 93 -32.5t73 -8.5q39 0 76 14t60 37t48.5 63.5t54 95.5t54.5 123l-213 607l-156 434q73 -2 97 -2q28 0 91 2q16 -70 27 -107t48 -151l151 -459q25 -78 50 -168l113 276l209 489q9 22 17.5 45.5l26.5 74.5q64 -2 89 -2q21 0 93 2l-189 -415
l-371 -825q-39 -83 -71 -126q-26 -34 -56 -59q-24 -21 -54 -36q-37 -18 -80 -28q-47 -10 -96 -10q-77 0 -168 22zM434 1145l92 262q49 -2 101 -2q47 0 102 2q-66 -93 -173 -262q-28 2 -62 2q-33 0 -60 -2z" />
    <glyph glyph-name="Thorn" unicode="&#xde;" horiz-adv-x="1113" 
d="M135 0l21 306l29 718l3 163q1 38 1 75v103q59 -1 90 -1q32 0 91 1q-6 -85 -10 -191h175l163 2q88 0 153 -14.5t117 -60t79.5 -112t27.5 -143.5q0 -126 -64 -226t-174.5 -149.5t-246.5 -49.5q-72 0 -160 16q-15 69 -34 125q76 -15 152 -15q71 0 137 16.5t112.5 55t73 96.5
t26.5 123q0 41 -14 80.5t-41 67.5t-70.5 43.5t-143.5 15.5q-147 0 -274 -3l-7 -127l-19 -669l-4 -246l-93 2q-17 0 -96 -2z" />
    <glyph glyph-name="thorn" unicode="&#xfe;" horiz-adv-x="1216" 
d="M102 -452l22 345l37 947q1 16 2 112l7 413q47 -1 89 -1q44 0 89 1q-16 -220 -20 -392q38 16 64 25t68 18t92 15t102 6q105 0 198 -33.5t156 -102.5t94 -166.5t31 -203.5q0 -109 -30 -210.5t-91.5 -181.5t-148.5 -120.5t-194 -40.5q-64 0 -123 15.5t-102.5 40.5t-73 56
t-71.5 93l-12 -396q-4 -97 -4 -140v-99q-51 2 -89 2q-35 0 -92 -2zM326 855l-6 -71l-9 -239l-1 -71q0 -134 41 -209.5t114.5 -119t160.5 -43.5q95 0 171.5 51t120 153t43.5 227q0 123 -45.5 212.5t-121.5 128t-169 38.5q-144 0 -299 -57z" />
    <glyph glyph-name="minus" unicode="&#x2212;" 
d="M120 763q272 -4 476 -4t477 4q-6 -51 -8 -120q-271 5 -476 5q-204 0 -477 -5q7 57 8 120z" />
    <glyph glyph-name="multiply" unicode="&#xd7;" 
d="M282 323q-20 26 -80 87l311 293l-289 295q45 37 91 83l281 -299l307 301q30 -38 80 -87l-311 -293l290 -294q-44 -37 -92 -84l-281 300z" />
    <glyph glyph-name="onesuperior" unicode="&#xb9;" horiz-adv-x="747" 
d="M336 546l5 67q2 23 10 196l16 436q-14 -8 -91 -59q7 63 7 115q81 47 105 65q19 -2 52 -2q38 0 62 2q-9 -131 -24 -455q-9 -181 -9 -309l1 -56q-33 1 -64 1q-38 0 -70 -1z" />
    <glyph glyph-name="twosuperior" unicode="&#xb2;" horiz-adv-x="748" 
d="M94 546q4 43 4 92l159.5 156.5t146 157t97 121.5t34.5 62.5t7 41.5q0 53 -48.5 82t-125.5 29q-87 0 -232 -36q12 57 17 102q124 24 248 24q84 0 146.5 -21.5t96.5 -63t34 -97.5q0 -28 -6.5 -54t-28 -66.5t-67.5 -96.5q-67 -84 -152 -174.5t-170 -169.5l28 -1
q199 0 251.5 1.5t115.5 6.5q-6 -55 -7 -96q-98 1 -267 1q-181 0 -281 -1z" />
    <glyph glyph-name="threesuperior" unicode="&#xb3;" horiz-adv-x="747" 
d="M94 565q-5 71 -11 109q75 -29 130.5 -38.5t103.5 -9.5q97 0 158.5 46.5t61.5 117.5q0 40 -21.5 72t-67.5 49t-128 17q-41 0 -93 -4q6 66 6 98q39 -6 68 -6q55 0 109 13.5t84 52t30 83.5q0 37 -21 67t-61 43.5t-95 13.5q-49 0 -93 -6t-108 -22q14 68 17 99q120 18 200 18
q97 0 164 -22t99 -69t32 -108q0 -42 -16.5 -83.5t-45 -69t-93.5 -53.5q82 -16 122.5 -66.5t40.5 -123.5q0 -71 -41 -130t-119 -89.5t-183 -30.5q-102 0 -229 32z" />
    <glyph glyph-name="onehalf" unicode="&#xbd;" horiz-adv-x="1691" 
d="M336 546l5 67q2 23 10 196l16 436q-14 -8 -91 -59q7 63 7 115q81 47 105 65q19 -2 52 -2q38 0 62 2q-9 -131 -24 -455q-9 -181 -9 -309l1 -56q-33 1 -64 1q-38 0 -70 -1zM395 0l576 968l231 397q32 -1 54 -1q25 0 57 1l-226 -375l-481 -817l-97 -173q-31 2 -51 2
q-24 0 -63 -2zM1016 0q4 48 4 92l158 154.5t146.5 158t98 122.5t34.5 62.5t7 41.5q0 53 -49 82t-125 29q-87 0 -232 -36q12 57 17 102q124 24 248 24q84 0 146.5 -21.5t96.5 -63.5t34 -97q0 -28 -6.5 -54t-28 -66.5t-67.5 -97.5q-67 -83 -151.5 -173.5t-170.5 -170.5h28
q199 0 252 1.5t115 6.5q-5 -50 -7 -96q-98 1 -267 1q-181 0 -281 -1z" />
    <glyph glyph-name="onequarter" unicode="&#xbc;" horiz-adv-x="1691" 
d="M336 546l5 67q2 23 10 196l16 436q-14 -8 -91 -59q7 63 7 115q81 47 105 65q19 -2 52 -2q38 0 62 2q-9 -131 -24 -455q-9 -181 -9 -309l1 -56q-33 1 -64 1q-38 0 -70 -1zM395 0l576 968l231 397q32 -1 54 -1q25 0 57 1l-226 -375l-481 -817l-97 -173q-31 2 -51 2
q-24 0 -63 -2zM1341 0l7 104l8 173l-151 -1l-198 -2q4 37 5 104l118 151l117 155l97 135q39 -1 80 -1t77 1q-14 -226 -22 -451h12q77 0 92.5 0.5t34.5 3.5q-3 -32 -3 -77l1 -20q-70 2 -141 2q-1 -24 -3 -110t-2 -114q0 -16 1 -53q-35 1 -64 1q-31 0 -66 -1zM1368 365l13 350
l-262 -350h249z" />
    <glyph glyph-name="threequarters" unicode="&#xbe;" horiz-adv-x="1691" 
d="M94 565q-5 71 -11 109q75 -29 130.5 -38.5t103.5 -9.5q97 0 158.5 46.5t61.5 117.5q0 40 -21.5 72t-67.5 49t-128 17q-41 0 -93 -4q6 66 6 98q39 -6 68 -6q55 0 109 13.5t84 52t30 83.5q0 37 -21 67t-61 43.5t-95 13.5q-49 0 -93 -6t-108 -22q14 68 17 99q120 18 200 18
q97 0 164 -22t99 -69t32 -108q0 -42 -16.5 -83.5t-45 -69t-93.5 -53.5q82 -16 122.5 -66.5t40.5 -123.5q0 -71 -41 -130t-119 -89.5t-183 -30.5q-102 0 -229 32zM394 0l264 440l449 761l94 164q32 -1 55 -1q24 0 56 1l-225 -374l-480 -816l-99 -175q-31 2 -51 2
q-23 0 -63 -2zM1340 0q7 82 11 166l4 111l-150 -1l-199 -2q5 52 5 104l117 149l117 154q48 64 98 138q40 -1 80 -1q42 0 77 1q-13 -210 -21 -451h11q77 0 93 0.5t34 3.5q-3 -37 -3 -68q0 -11 1 -29q-70 2 -140 2q-2 -26 -4 -108.5t-2 -113.5q0 -17 2 -55q-35 1 -65 1t-66 -1
zM1368 365l12 350l-139 -187l-123 -163h250z" />
    <glyph glyph-name="sfthyphen" unicode="&#xad;" horiz-adv-x="510" 
d="M-3 461q8 74 8 133q139 -5 249 -5q107 0 249 5q-7 -70 -8 -133q-125 5 -251 5q-120 0 -247 -5z" />
    <glyph glyph-name="overscore" unicode="&#xaf;" horiz-adv-x="1028" 
d="M2 1581h1024v-111h-1024v111z" />
    <glyph glyph-name="middot" unicode="&#xb7;" horiz-adv-x="221" 
d="M10 598q3 49 4 84l5 115l109 -1l99 1q-4 -48 -6 -105l-4 -94l-99 2q-9 0 -108 -2z" />
    <glyph glyph-name="currency" unicode="&#xa4;" 
d="M230 994l-135 136q36 29 88 80l129 -139q60 41 135.5 62t155.5 21q83 0 159.5 -23.5t127.5 -61.5l144 143q24 -31 77 -84l-147 -137q37 -54 57.5 -127t20.5 -152q0 -82 -22.5 -162t-61.5 -141l131 -132q-44 -37 -88 -81l-116 126q-23 -19 -39 -29.5t-45.5 -24.5
t-65 -24.5t-77.5 -16.5t-84 -6q-81 0 -161.5 24t-137.5 73l-124 -123q-24 28 -78 83l130 121q-36 54 -55 123.5t-19 143.5q0 93 28 182t73 146zM594 1044q-92 0 -170.5 -44.5t-116 -134.5t-37.5 -197q0 -95 31 -170.5t102 -122.5t173 -47q100 0 175 45.5t113 135.5t38 202
q0 79 -22 147.5t-67 110t-102.5 58.5t-116.5 17z" />
  </font>
</defs>
</svg>
